Подписывайся на наш канал в Telegram https://t.me/torrentok и получи доступ к торрентам без ограничений!

Воган Лин | Blender 2.8 Продвинутый: Грузовой космический корабль / Blender 2.8 Advanced: Cargo Spaceship (2019) PCRec [H.264 / 1080p-LQ] [EN] торрент скачать бесплатно

Воган Лин | Blender 2.8 Продвинутый: Грузовой космический корабль / Blender 2.8 Advanced: Cargo Spaceship (2019) PCRec [H.264 / 1080p-LQ] [EN]Автор (режиссер): Воган Лин/Vaughan Ling
Производство: Gumroad
Жанр: 3D моделирование

Описание

В этом курсе мы рассмотрим весь процесс создания грузового космического корабля с нуля, включая моделирование, выветривание, наклейки, освещение, рендеринг и немного простой анимации, чтобы оживить его.
Продолжительность: 09: 21: 44
Качество видео: PCRec
Перевод: Отсутствует
Язык озвучки: Английский
Видео: AVC/H.264, 1920х1080, ~3100 Kbps
Аудио: AAC, 2 ch, 168 Kbps, CBR Код: выделить все
General
Complete name : C:TorrentsGumroad - Blender 2.8 Advanced Cargo Spaceship by Vaughan Ling (2019)6 Neck Pipes.mp4
Format : MPEG-4
Format profile : Base Media
Codec ID : isom
File size : 235 MiB
Duration : 9mn 53s
Overall bit rate : 3 322 Kbps
Writing application : Lavf57.84.100
Video
ID : 1
Format : AVC
Format/Info : Advanced Video Codec
Format profile :[email protected]
Format settings, CABAC : Yes
Format settings, ReFrames : 4 frames
Codec ID : avc1
Codec ID/Info : Advanced Video Coding
Duration : 9mn 52s
Bit rate : 3 100 Kbps
Width : 1 920 pixels
Height : 1 080 pixels
Display aspect ratio : 16:9
Frame rate mode : Constant
Frame rate : 24.000 fps
Color space : YUV
Chroma subsampling : 4:2:0
Bit depth : 8 bits
Scan type : Progressive
Bits/(Pixel*Frame) : 0.062
Stream size : 223 MiB (95%)
Writing library : x264 core 148 r2762 90a61ec
Encoding settings : cabac=1/ref=1/deblock=1:0:0/analyse=0x3:0x113/me=hex/subme=2/psy=1/psy_rd=1.00:0.00/mixed_ref=0/me_range=16/chroma_me=1/trellis=0/8x8dct=1/cqm=0/deadzone=21, 11/fast_pskip=1/chroma_qp_offset=0/threads=18/lookahead_threads=6/sliced_threads=0/nr=0/decimate=1/interlaced=0/bluray_compat=0/constrained_intra=0/bframes=3/b_pyramid=2/b_adapt=1/b_bias=0/direct=1/weightb=1/open_gop=0/weightp=1/keyint=250/keyint_min=24/scenecut=40/intra_refresh=0/rc_lookahead=10/rc=abr/mbtree=1/bitrate=3100/ratetol=1.0/qcomp=0.60/qpmin=0/qpmax=69/qpstep=4/ip_ratio=1.40/aq=1:1.00
Matrix coefficients : BT.601
Audio
ID : 2
Format : AAC
Format/Info : Advanced Audio Codec
Format profile : LC
Codec ID : 40
Duration : 9mn 53s
Bit rate mode : Constant
Bit rate : 168 Kbps
Channel(s) : 2 channels
Channel positions : Front: L R
Sampling rate : 44.1 KHz
Compression mode : Lossy
Stream size : 11.9 MiB (5%)

Другие торренты по теме:

  • Воган Лин | Blender 2.79 Основы: Геймпад NES / Blender 2.79 Basics: NES Controller (2017) PCRec [H.264 / 1080p-LQ] [EN]
  • Воган Лин | Blender 2.79 Средний уровень: Краб Бот / Blender 2.79 Intermediate: Crab Bot (2017) PCRec [H.264 / 1080p-LQ] [EN]
  • Воган Лин | Blender 2.79 Средний уровень: Sci Fi коридор / Blender 2.79 Intermediate: Sci Fi Corridor (2018) PCRec [H.264 / 1080p-LQ] [EN]

  • Посетители, находящиеся в группе Гости, не могут оставлять комментарии в данной новости.
    Для авторских прав
    Вход на сайт
    Навигация
    Популярное

    Бен Орлин | Математика с дурацкими рисунками. Идеи, которые формируют нашу реальность (2020) [PDF]

    (скачиваний: 24)
    Джордж Саймон | Манипулятор в овечьей шкуре. Как не стать жертвой его уловок (2020) [FB2]

    (скачиваний: 17)
    Евгений Божьев | Просто исцеляйся сам. Что делать, когда все болит и ничего не помогает (2020) [EPUB]

    (скачиваний: 16)
    Виталий Злобин | Дом, который построишь ты. Как создать современный проект загородного дома (2020) [PDF]

    (скачиваний: 12)
    Доктор Фил | В поисках волшебной таблетки. Научно-популярная сказка (2020) [FB2, PDF]

    (скачиваний: 11)
    Дженни Климан | Секс без людей, мясо без животных. Кто проектирует мир будущего (2020) [FB2]

    (скачиваний: 10)
    Максим Черкашин (сост.) | Сигары. Иллюстрированная энциклопедия (2013) [PDF]

    (скачиваний: 9)
    Дженна Маччиоки | Иммунитет. Наука о том, как быть здоровым (2020) [EPUB]

    (скачиваний: 8)
    Дмитрий Мережковский | Наполеон (2020) [FB2]

    (скачиваний: 7)
    Марк Рипли | Работы по дереву. Проекты и чертежи мебели для дома (2019) [PDF]

    (скачиваний: 6)