Подписывайся на наш канал в Telegram https://t.me/torrentok и получи доступ к торрентам без ограничений!

Воган Лин | Blender 2.79 Средний уровень: Sci Fi коридор / Blender 2.79 Intermediate: Sci Fi Corridor (2018) PCRec [H.264 / 1080p-LQ] [EN] торрент скачать бесплатно

Воган Лин | Blender 2.79 Средний уровень: Sci Fi коридор / Blender 2.79 Intermediate: Sci Fi Corridor (2018) PCRec [H.264 / 1080p-LQ] [EN]Автор (режиссер): Воган Лин/Vaughan Ling
Производство: Gumroad
Жанр: 3D моделирование

Описание

Пошаговое руководство по дизайну, моделированию, освещению, шейдингу и рендерингу научно-фантастического коридора с нуля в Blender!
Мы сделаем рендеры коридора в двух разных стилях: чистый завод и мрачный как в фильме Чужой.
Продолжительность: 04: 14: 53
Качество видео: PCRec
Перевод: Отсутствует
Язык озвучки: Английский
Видео: AVC/H.264, 1920х1080, ~2500 Kbps
Аудио: AAC, 2 ch, 163 Kbps, CBR Код: выделить все
General
Complete name : C:TorrentsGumroad - Blender 2.79 Intermediate - Sci Fi Corridor by Vaughan Ling (2018)2 Mirror And Boolean.mp4
Format : MPEG-4
Format profile : Base Media
Codec ID : isom (isom/iso2/avc1/mp41)
File size : 117 MiB
Duration : 6 min 21 s
Overall bit rate mode : Constant
Overall bit rate : 2 574 kb/s
Writing application : Lavf57.84.100
Video
ID : 1
Format : AVC
Format/Info : Advanced Video Codec
Format profile : [email protected]
Format settings : CABAC/2 Ref Frames
Format settings, CABAC : Yes
Format settings, Reference : 2 frames
Codec ID : avc1
Codec ID/Info : Advanced Video Coding
Duration : 6 min 21 s
Bit rate mode : Constant
Bit rate : 2 500 kb/s
Width : 1 920 pixels
Height : 1 080 pixels
Display aspect ratio : 16:9
Frame rate mode : Constant
Frame rate : 30.000 FPS
Color space : YUV
Chroma subsampling : 4:2:0
Bit depth : 8 bits
Scan type : Progressive
Bits/(Pixel*Frame) : 0.040
Stream size : 109 MiB (93%)
Color range : Limited
Matrix coefficients : BT.470 System B/G
Codec configuration box : avcC
Audio
ID : 2
Format : AAC LC
Format/Info : Advanced Audio Codec Low Complexity
Codec ID : mp4a-40-2
Duration : 6 min 21 s
Bit rate mode : Constant
Bit rate : 163 kb/s
Channel(s) : 1 channel
Channel layout : C
Sampling rate : 48.0 kHz
Frame rate : 46.875 FPS (1024 SPF)
Compression mode : Lossy
Stream size : 7.42 MiB (6%)
Title : Track1
Default : Yes
Alternate group : 1

Другие торренты по теме:

  • Воган Лин | Blender 2.8 Продвинутый: Грузовой космический корабль / Blender 2.8 Advanced: Cargo Spaceship (2019) PCRec [H.264 / 1080p-LQ] [EN]
  • Воган Лин | Blender 2.79 Основы: Геймпад NES / Blender 2.79 Basics: NES Controller (2017) PCRec [H.264 / 1080p-LQ] [EN]
  • Воган Лин | Blender 2.79 Средний уровень: Краб Бот / Blender 2.79 Intermediate: Crab Bot (2017) PCRec [H.264 / 1080p-LQ] [EN]

  • Посетители, находящиеся в группе Гости, не могут оставлять комментарии в данной новости.
    Для авторских прав
    Вход на сайт
    Навигация
    Популярное

    Бен Орлин | Математика с дурацкими рисунками. Идеи, которые формируют нашу реальность (2020) [PDF]

    (скачиваний: 24)
    Джордж Саймон | Манипулятор в овечьей шкуре. Как не стать жертвой его уловок (2020) [FB2]

    (скачиваний: 17)
    Евгений Божьев | Просто исцеляйся сам. Что делать, когда все болит и ничего не помогает (2020) [EPUB]

    (скачиваний: 16)
    Виталий Злобин | Дом, который построишь ты. Как создать современный проект загородного дома (2020) [PDF]

    (скачиваний: 12)
    Доктор Фил | В поисках волшебной таблетки. Научно-популярная сказка (2020) [FB2, PDF]

    (скачиваний: 11)
    Дженни Климан | Секс без людей, мясо без животных. Кто проектирует мир будущего (2020) [FB2]

    (скачиваний: 10)
    Максим Черкашин (сост.) | Сигары. Иллюстрированная энциклопедия (2013) [PDF]

    (скачиваний: 9)
    Дженна Маччиоки | Иммунитет. Наука о том, как быть здоровым (2020) [EPUB]

    (скачиваний: 8)
    Дмитрий Мережковский | Наполеон (2020) [FB2]

    (скачиваний: 7)
    Марк Рипли | Работы по дереву. Проекты и чертежи мебели для дома (2019) [PDF]

    (скачиваний: 6)