Подписывайся на наш канал в Telegram https://t.me/torrentok и получи доступ к торрентам без ограничений!

[Udemy] Ныгметжан Кузенбаев | Power BI для начинающих (2020) PCRec торрент скачать бесплатно

[Udemy] Ныгметжан Кузенбаев | Power BI для начинающих (2020) PCRecАвтор: Ныгметжан Кузенбаев
Производство: Udemy
Жанр: Power BI

Описание

Этот онлайн-курс, состоящий из коротких видеолекций, посвящен одному из самых популярных и удобных в использовании инструментов бизнес-анализа - Power BI. C Power BI можно подключаться к сотням источников данных и создавать динамические панели мониторинга.
Работать мы будем с данными о распространении коронавируса, которые я скачал из открытых источников. Мы создадим отчет, который будет содержать информацию об уровне смертности от коронавируса и динамике заболеваемости в разных странах.
Продолжительность: 01: 26: 00
Качество видео: PCRec
Видео: AVC/H.264, 1280x720, ~1054 Kbps
Аудио: AAC, 2 ch, 317 Kbps
Общее
Полное имя : D: -=Education=-VideoCoursesITPower BI-=Udemy Бизнес-анализ с Power BI для начинающих (2020)=-1. Введение1. Введение.mp4
Формат : MPEG-4
Профиль формата : Base Media/Version 2
Идентификатор кодека : mp42 (mp42/mp41)
Размер файла : 9, 78 Мбайт
Продолжительность : 59 с. 533 мс.
Режим общего битрейта : Переменный
Общий поток : 1 378 Кбит/сек
Дата кодирования : UTC 2020-05-06 14: 53: 56
Дата пометки : UTC 2020-05-06 14: 53: 56
TIM : 00: 00: 00: 00
TSC : 30
TSZ : 1
Видео
Идентификатор : 1
Формат : AVC
Формат/Информация : Advanced Video Codec
Профиль формата : [email protected]
Настройки формата : CABAC/4 Ref Frames
Параметр CABAC формата : Да
Параметр RefFrames формата : 4 кадра
Идентификатор кодека : avc1
Идентификатор кодека/Информация : Advanced Video Coding
Продолжительность : 59 с. 533 мс.
Битрейт : 1 054 Кбит/сек
Ширина : 1 280 пикселей
Высота : 720 пикселей
Соотношение сторон : 16: 9
Режим частоты кадров : Постоянный
Частота кадров : 30, 000 кадров/сек
Стандарт вещания : NTSC
Цветовое пространство : YUV
Субдискретизация насыщенности : 4: 2: 0
Битовая глубина : 8 бит
Тип развёртки : Прогрессивная
Бит/(Пиксели*Кадры) : 0.038
Размер потока : 7, 48 Мбайт (77%)
Язык : English
Дата кодирования : UTC 2020-05-06 14: 53: 56
Дата пометки : UTC 2020-05-06 14: 53: 56
Цветовой диапазон : Limited
Основные цвета : BT.709
Характеристики трансфера : BT.709
Коэффициенты матрицы : BT.709
Codec configuration box : avcC
Аудио
Идентификатор : 2
Формат : AAC LC
Формат/Информация : Advanced Audio Codec Low Complexity
Идентификатор кодека : mp4a-40-2
Продолжительность : 59 с. 533 мс.
Продолжительность оригинала : 59 с. 584 мс.
Вид битрейта : Переменный
Битрейт : 317 Кбит/сек
Максимальный битрейт : 462 Кбит/сек
Каналы : 2 канала
Channel layout : L R
Частота : 48, 0 КГц
Частота кадров : 46, 875 кадров/сек (1024 SPF)
Метод сжатия : С потерями
Размер потока : 2, 25 Мбайт (23%)
Размер потока оригинала : 2, 25 Мбайт (23%)
Язык : English
Дата кодирования : UTC 2020-05-06 14: 53: 56
Дата пометки : UTC 2020-05-06 14: 53: 56
Скриншоты:


Время раздачи: с 10: 00 до 02: 00 (до появления первых 3-5 скачавших)

Другие торренты по теме:

  • [Udemy] Konstantin Kokorin | Изучаем Dart (2020) PCRec
  • [Udemy] Danny Connell | PWA с Vue JS, Quasar и Firebase (с NodeJS и Express) / PWA with Vue JS, Quasar & Firebase (with NodeJS & Express) (2020) PCRec [En / En Sub]
  • [Udemy] Stephane Maarek | gRPC [Java]: создание современных API и микросервисов / gRPC [Java] Master Class: Build Modern API & Micro services (2020) PCRec [En]
  • Udemy | Изучение взлома Wi-fi паролей / ключей (WEP / WPA / WPA2) / Learn Cracking Wi-fi Passwords / Keys (WEP / WPA / WPA2) (2015) PCRec [EN]
  • Udemy | Certified Metasploit Framework Professional (2014) PCRec [EN] скачать через торрент бесплатно
  • Udemy.com | Создание сайта с нуля с помощью HTML и CSS / Build Websites from Scratch with HTML & CSS (2014) PCRec [H.264 / 720p] [EN] скачать через торрент бесплатно
  • Udemy.com | Станьте web-разработчиком с нуля / Become a Web Developer from Scratch (2015) PCRec [H.264 / 720p] [EN] скачать через торрент бесплатно
  • Udemy.com | Infinite Skills | Написание безопасного PHP-кода. Уроки о защите. | Writing Secure PHP Code - PHP Security Tutorial (2014) PCRec [H.264 / 720p] [EN] скачать через торрент бесплатно

  • Посетители, находящиеся в группе Гости, не могут оставлять комментарии в данной новости.
    Для авторских прав
    Вход на сайт
    Навигация
    Популярное

    Энди Уорнер | Краткие истории обычных вещей (2019) [PDF]

    (скачиваний: 22)
    Касия Везовски, Патрик Везовски | Я понимаю тебя без слов. Как читать людей по жестам и мимике (2020) [PDF]

    (скачиваний: 18)
    Джейсон Уилкс | Математика в огне. Нескучный неучебник (2020) [PDF]

    (скачиваний: 14)
    Андреас Штипплер, Норберт Регитниг-Тиллиан | Мышцы. Как у вас дела (2020) [FB2]

    (скачиваний: 12)
    Воган Лин | Blender 2.79 Средний уровень: Sci Fi коридор / Blender 2.79 Intermediate: Sci Fi Corridor (2018) PCRec [H.264 / 1080p-LQ] [EN]

    (скачиваний: 11)
    Воган Лин | Blender 2.8 Продвинутый: Грузовой космический корабль / Blender 2.8 Advanced: Cargo Spaceship (2019) PCRec [H.264 / 1080p-LQ] [EN]

    (скачиваний: 10)
    Елена Перелыгина | НЛП: манипуляция или ключ к успеху (2020) [EPUB]

    (скачиваний: 9)
    Наоми Вульф | Вагина. Новая история женской сексуальности (2018) [FB2]

    (скачиваний: 8)
    Эрик Берн | Игры, в которые играют люди. Люди, которые играют в игры (сборник) (2017) [FB2]

    (скачиваний: 7)
    Марк Уолинн | Это началось не с тебя (2020) [FB2]

    (скачиваний: 6)