Подписывайся на наш канал в Telegram https://t.me/torrentok и получи доступ к торрентам без ограничений!

Jakub Krompolc | Exploring Human Muscles Setup in Maya (2016) PCRec торрент скачать бесплатно

Jakub Krompolc | Exploring Human Muscles Setup in Maya (2016) PCRecАвтор: Jakub Krompolc
Производство: Pluralsight
Жанр: Создание видео

Описание

В этом курсе мы рассмотрим настройки деформаций для человекоподобного персонажа, используя инструмент “мышцы” (muscles) в Maya. Мы рассмотрим процесс передачи человеческой анатомии через 3Д деформации, поговорим о том, как создать объекты, которые будут служить нашими мышцами и как прикрепить их к скелету для анимации, а закончим, узнав, как заставить мышцы деформироваться вместе с частями нашего персонажа. Мы воспользуемся скриптом среды Python, написанным специально для нашего урока с целью облегчить настройку. К концу урока вы узнаете много нового о процессе настройки реалистичных деформаций, который используется в киноиндустрии. Отдельное спасибо Яну Джинда за модель оборотня и Павлу Хрубос за ролики с анимацией. Необходимое программное обеспечение: Maya 2016.
Продолжительность: 06: 49: 00
Качество видео: PCRec
Язык озвучки: Английский, русский
Видео: AVC/H.264, 1280x720, ~1089kbps
Аудио: AAC, 2 ch, 95kbps
Аудио 2: MP3, 2 ch, 128kbps (отдельным файлом)
General
Complete name : J: Pluralsight - Exploring Human Muscles Setup in Maya ENG-RUS1 Introduction and Project Overview1 01 Introduction and Project Overview.mp4
Format : MPEG-4
Format profile : Base Media/Version 2
Codec ID : mp42 (isom/iso2/avc1/mp41/mp42)
File size : 9.65 MiB
Duration : 1 min 8 s
Overall bit rate : 1 189 kb/s
Encoded date : UTC 2016-02-03 15: 17: 16
Tagged date : UTC 2016-02-03 15: 17: 16
Writing application : Lavf53.32.100
IsTruncated : Yes
Video
ID : 1
Format : AVC
Format/Info : Advanced Video Codec
Format profile : [email protected]
Format settings : CABAC/8 Ref Frames
Format settings, CABAC : Yes
Format settings, Reference fra : 8 frames
Codec ID : avc1
Codec ID/Info : Advanced Video Coding
Duration : 1 min 8 s
Bit rate : 1 090 kb/s
Width : 1 280 pixels
Height : 720 pixels
Display aspect ratio : 16: 9
Frame rate mode : Constant
Frame rate : 30.000 FPS
Color space : YUV
Chroma subsampling : 4: 2: 0
Bit depth : 8 bits
Scan type : Progressive
Bits/(Pixel*Frame) : 0.039
Stream size : 8.83 MiB (92%)
Writing library : x264 core 136
Encoding settings : cabac=1/ref=8/deblock=1: 0: 0/analyse=0x3: 0x113/me=umh/subme=6/psy=0/mixed_ref=1/me_range=16/chroma_me=1/trellis=0/8x8dct=1/cqm=0/deadzone=21, 11/fast_pskip=1/chroma_qp_offset=0/threads=48/lookahead_threads=5/sliced_threads=0/nr=0/decimate=1/interlaced=0/bluray_compat=0/constrained_intra=0/bframes=3/b_pyramid=2/b_adapt=1/b_bias=0/direct=1/weightb=1/open_gop=0/weightp=0/keyint=60/keyint_min=30/scenecut=0/intra_refresh=0/rc_lookahead=40/rc=crf/mbtree=1/crf=20.0/qcomp=0.60/qpmin=10/qpmax=51/qpstep=4/ip_ratio=1.40/aq=1: 1.00
Language : English
Encoded date : UTC 2016-02-03 15: 17: 16
Tagged date : UTC 2016-02-11 22: 04: 56
Codec configuration box : avcC
Audio
ID : 2
Format : AAC LC
Format/Info : Advanced Audio Codec Low Complexity
Codec ID : mp4a-40-2
Duration : 1 min 8 s
Bit rate mode : Constant
Bit rate : 96.0 kb/s
Channel(s) : 2 channels
Channel layout : L R
Sampling rate : 44.1 kHz
Frame rate : 43.066 FPS (1024 SPF)
Compression mode : Lossy
Stream size : 798 KiB (8%)
Language : English
Default : Yes
Alternate group : 1
Encoded date : UTC 2016-02-03 15: 17: 16
Tagged date : UTC 2016-02-11 22: 04: 56

Другие торренты по теме:

  • Якуб / Jakub (1977) TVRip скачать через торрент бесплатно
  • Футажи - Jakub Sobotka - Scan Overlays [MP4, JPG]

  • Посетители, находящиеся в группе Гости, не могут оставлять комментарии в данной новости.
    Для авторских прав
    Вход на сайт
    Навигация
    Популярное

    Энди Уорнер | Краткие истории обычных вещей (2019) [PDF]

    (скачиваний: 21)
    Касия Везовски, Патрик Везовски | Я понимаю тебя без слов. Как читать людей по жестам и мимике (2020) [PDF]

    (скачиваний: 16)
    Джейсон Уилкс | Математика в огне. Нескучный неучебник (2020) [PDF]

    (скачиваний: 14)
    Воган Лин | Blender 2.79 Средний уровень: Краб Бот / Blender 2.79 Intermediate: Crab Bot (2017) PCRec [H.264 / 1080p-LQ] [EN]

    (скачиваний: 12)
    Воган Лин | Blender 2.79 Средний уровень: Sci Fi коридор / Blender 2.79 Intermediate: Sci Fi Corridor (2018) PCRec [H.264 / 1080p-LQ] [EN]

    (скачиваний: 11)
    Воган Лин | Blender 2.8 Продвинутый: Грузовой космический корабль / Blender 2.8 Advanced: Cargo Spaceship (2019) PCRec [H.264 / 1080p-LQ] [EN]

    (скачиваний: 10)
    Андреас Штипплер, Норберт Регитниг-Тиллиан | Мышцы. Как у вас дела (2020) [FB2]

    (скачиваний: 9)
    Михаил Савич | «Первый» [11 книг] (2019) [FB2]

    (скачиваний: 8)
    Ренсом Риггз | Цикл «Мисс Перегрин» [6 книг] (2012-2020) [FB2] [Обновляемая]

    (скачиваний: 7)
    В.Н. Шунков | Полная энциклопедия вооружений СССР Второй мировой войны (2010) [PDF]

    (скачиваний: 6)