Подписывайся на наш канал в Telegram https://t.me/torrentok и получи доступ к торрентам без ограничений!

Арсен Маркарян | Собрание Тестостерон Release (2015-2020) WEB-DL торрент скачать бесплатно

Арсен Маркарян | Собрание Тестостерон Release (2015-2020) WEB-DLАвтор: Арсен Маркарян
Жанр: Психология, Биохакинг, Гормоны, Мотивация

Описание

Получив, инструмент влияния на свои гормоны, ты получаешь доступ ко всем своим внутренним ресурсам, к управлению своей головой, мыслями, мотивацией, желаниями. Ты сможешь делать то что хочешь, а горизонт твоих целей и желаний вырастет в несколько раз.
Собрание онлайн-курсов Арсена Маркаряна Тестостерон Release с 2015 по 2020 год, дополнительные материалы к ним и записи перед началом курса Тестостероновый спринт 2019 и 2020.
Для начального ознакомления рекомендую Тестостероновый спринт 2019 и TR8 2020 Январь.
Продолжительность: ~182: 00: 00
Качество видео: WEB-DL
Видео: HEVC/H.265, 1280x720, ~400-550 kbps
Аудио: AAC, 2 ch, 128 kbps
General
Complete name : F: Тестостерон Release 2015-2020TR8 2020 ЯнварьЗаданияГнев - это Дар.mp4
Format : MPEG-4
Format profile : Base Media
Codec ID : isom (isom/iso2/mp41)
File size : 64.0 MiB
Duration : 14 min 50 s
Overall bit rate mode : Variable
Overall bit rate : 602 kb/s
Video
ID : 1
Format : HEVC
Format/Info : High Efficiency Video Coding
Format profile : [email protected]@Main
Codec ID : hvc1
Codec ID/Info : High Efficiency Video Coding
Duration : 14 min 50 s
Bit rate : 415 kb/s
Width : 1 280 pixels
Height : 720 pixels
Display aspect ratio : 16: 9
Frame rate mode : Constant
Frame rate : 25.000 FPS
Color space : YUV
Chroma subsampling : 4: 2: 0
Bit depth : 8 bits
Bits/(Pixel*Frame) : 0.018
Stream size : 44.1 MiB (69%)
Codec configuration box : hvcC
Audio
ID : 2
Format : AAC LC
Format/Info : Advanced Audio Codec Low Complexity
Codec ID : mp4a-40-2
Duration : 14 min 50 s
Bit rate mode : Variable
Bit rate : 182 kb/s
Maximum bit rate : 192 kb/s
Channel(s) : 2 channels
Channel layout : L R
Sampling rate : 44.1 kHz
Frame rate : 43.066 FPS (1024 SPF)
Compression mode : Lossy
Stream size : 19.4 MiB (30%)
Default : Yes
Alternate group : 1

Другие торренты по теме:

  • Арсен Петросов -3 альбома (2008-2010) [FLAC|Lossless|image + .cue] <Chanson>
  • Арсен Шмат | Заметки чайника-мага (2012) [FB2]
  • Арсен Ревазов | Одиночество-12 (2008) [FB2]

  • Посетители, находящиеся в группе Гости, не могут оставлять комментарии в данной новости.
    Для авторских прав
    Вход на сайт
    Навигация
    Популярное

    Энди Уорнер | Краткие истории обычных вещей (2019) [PDF]

    (скачиваний: 21)
    Касия Везовски, Патрик Везовски | Я понимаю тебя без слов. Как читать людей по жестам и мимике (2020) [PDF]

    (скачиваний: 15)
    Джейсон Уилкс | Математика в огне. Нескучный неучебник (2020) [PDF]

    (скачиваний: 14)
    Воган Лин | Blender 2.79 Средний уровень: Краб Бот / Blender 2.79 Intermediate: Crab Bot (2017) PCRec [H.264 / 1080p-LQ] [EN]

    (скачиваний: 12)
    Воган Лин | Blender 2.79 Средний уровень: Sci Fi коридор / Blender 2.79 Intermediate: Sci Fi Corridor (2018) PCRec [H.264 / 1080p-LQ] [EN]

    (скачиваний: 11)
    Воган Лин | Blender 2.8 Продвинутый: Грузовой космический корабль / Blender 2.8 Advanced: Cargo Spaceship (2019) PCRec [H.264 / 1080p-LQ] [EN]

    (скачиваний: 10)
    Ханс Фаллада | Один в Берлине (Каждый умирает в одиночку) (2017) [PDF, FB2, EPUB, MOBI]

    (скачиваний: 9)
    Эми Морис | 13 привычек сильных духом людей (2019) [EPUB, PDF]

    (скачиваний: 8)
    И.В. Блохина и др. | Большая книга для каждого образованного человека. 10000 фактов, дат, событий (2018) [PDF]

    (скачиваний: 7)
    Олег Дивов и др. | Цифрономикон [сборник] (2014) [FB2] скачать через торрент бесплатно

    (скачиваний: 6)