Подписывайся на наш канал в Telegram https://t.me/torrentok и получи доступ к торрентам без ограничений!

[Udemy] Maximilian Schwarzmüller | Ускоренное обучение JavaScript / Accelerated JavaScript Training (2020) PCRec [En] торрент скачать бесплатно

[Udemy] Maximilian Schwarzmüller | Ускоренное обучение JavaScript / Accelerated JavaScript Training (2020) PCRec [En]Автор: Maximilian Schwarzmüller
Производство: Udemy
Жанр: Программирование

Описание

Глубоко погрузитесь в JavaScript, язык, который необходимо знать в веб-разработке, с практическим подходом, основанным на примерах.
Изучите один из самых важных языков в веб-разработке - быстро и с нуля!
JavaScript - одна из самых важных частей каждой современной, реактивной, удобной веб-страницы или приложения. Несмотря на этот факт, вы, возможно, знаете много руководств, которые оставляют вам много открытых вопросов или хороши, но им уже пару лет!
Практический курс на основе примеров.
Присоединяйтесь к этому курсу, чтобы получить практический, управляемый примерами JavaScript Bootcamp, который проведет вас через удивительный язык JavaScript. Начиная с самых основ, мы рассмотрим различные характеристики и возможности JavaScript.
Продолжительность: 07: 34: 00
Качество видео: PCRec
Язык озвучки: Английский
Видео: AVC/H.264, 1280x720, ~307 Kbps
Аудио: AAC, 2 ch, 192 Kbps
Общее
Полное имя : Udemy Ускоренное обучение JavaScript (2020)1. Getting Started3. How to Execute JavaScript (Where does JS run).mp4
Формат : MPEG-4
Профиль формата : Base Media/Version 2
Идентификатор кодека : mp42 (isom/iso2/avc1/mp41/mp42)
Размер файла : 5, 10 Мбайт
Продолжительность : 1 м. 26 с.
Режим общего битрейта : Переменный
Общий поток : 497 Кбит/сек
Дата кодирования : UTC 2016-06-05 21: 17: 06
Дата пометки : UTC 2016-06-05 21: 17: 06
Программа кодирования : Lavf53.32.100
Видео
Идентификатор : 1
Формат : AVC
Формат/Информация : Advanced Video Codec
Профиль формата : [email protected]
Настройки формата : CABAC/4 Ref Frames
Параметр CABAC формата : Да
Параметр RefFrames формата : 4 кадра
Идентификатор кодека : avc1
Идентификатор кодека/Информация : Advanced Video Coding
Продолжительность : 1 м. 25 с.
Битрейт : 307 Кбит/сек
Ширина : 1 280 пикселей
Высота : 720 пикселей
Соотношение сторон : 16: 9
Режим частоты кадров : Постоянный
Частота кадров : 30, 000 кадров/сек
Цветовое пространство : YUV
Субдискретизация насыщенности : 4: 2: 0
Битовая глубина : 8 бит
Тип развёртки : Прогрессивная
Бит/(Пиксели*Кадры) : 0.011
Размер потока : 3, 12 Мбайт (61%)
Библиотека кодирования : x264 core 136
Язык : English
Дата кодирования : UTC 2016-06-05 21: 17: 06
Дата пометки : UTC 2016-06-23 21: 35: 32
Codec configuration box : avcC
Аудио
Идентификатор : 2
Формат : AAC LC
Формат/Информация : Advanced Audio Codec Low Complexity
Идентификатор кодека : mp4a-40-2
Продолжительность : 1 м. 26 с.
Вид битрейта : Переменный
Битрейт : 192 Кбит/сек
Каналы : 2 канала
Channel layout : L R
Частота : 48, 0 КГц
Частота кадров : 46, 875 кадров/сек (1024 SPF)
Метод сжатия : С потерями
Размер потока : 1, 94 Мбайт (38%)
Default : Да
Alternate group : 1
Дата кодирования : UTC 2016-06-05 21: 17: 06
Дата пометки : UTC 2016-06-23 21: 35: 32

Другие торренты по теме:

  • [Udemy] Maximilian Schwarzmüller | NodeJS - Полное руководство (включая MVC, REST API, GraphQL) / NodeJS - The Complete Guide (MVC, REST APIs, GraphQL, Deno) (2018) PCRec [En]

  • Посетители, находящиеся в группе Гости, не могут оставлять комментарии в данной новости.
    Для авторских прав
    Вход на сайт
    Навигация
    Популярное

    Энди Уорнер | Краткие истории обычных вещей (2019) [PDF]

    (скачиваний: 22)
    Касия Везовски, Патрик Везовски | Я понимаю тебя без слов. Как читать людей по жестам и мимике (2020) [PDF]

    (скачиваний: 18)
    Джейсон Уилкс | Математика в огне. Нескучный неучебник (2020) [PDF]

    (скачиваний: 14)
    Андреас Штипплер, Норберт Регитниг-Тиллиан | Мышцы. Как у вас дела (2020) [FB2]

    (скачиваний: 12)
    Воган Лин | Blender 2.79 Средний уровень: Sci Fi коридор / Blender 2.79 Intermediate: Sci Fi Corridor (2018) PCRec [H.264 / 1080p-LQ] [EN]

    (скачиваний: 11)
    Воган Лин | Blender 2.8 Продвинутый: Грузовой космический корабль / Blender 2.8 Advanced: Cargo Spaceship (2019) PCRec [H.264 / 1080p-LQ] [EN]

    (скачиваний: 10)
    Елена Перелыгина | НЛП: манипуляция или ключ к успеху (2020) [EPUB]

    (скачиваний: 9)
    Наоми Вульф | Вагина. Новая история женской сексуальности (2018) [FB2]

    (скачиваний: 8)
    Эрик Берн | Игры, в которые играют люди. Люди, которые играют в игры (сборник) (2017) [FB2]

    (скачиваний: 7)
    Марк Уолинн | Это началось не с тебя (2020) [FB2]

    (скачиваний: 6)