Подписывайся на наш канал в Telegram https://t.me/torrentok и получи доступ к торрентам без ограничений!

OTUS | PHP-разработчик. Часть 3 из 5 (2020) PCRec торрент скачать бесплатно

OTUS | PHP-разработчик. Часть 3 из 5 (2020) PCRecАвтор: OTUS
Жанр: Программирование, PHP

Описание

Для реализации больших и долгосрочных проектов современному PHP-разработчику необходимо заботиться об архитектуре кода, применять паттерны проектирования, писать код в соответствии с принципами SOLID и поддерживать высокий code coverage своих unit-тестов. Но профессия PHP Backend Developer требует знаний не только языка PHP, а ещё знаний инструментов, таких как базы данных, очереди, кеш-сервера, без которых немыслимо современное веб-приложение.
Продолжительность: 15: 14: 55
Качество видео: PCRec
Видео: AVC/H.264, [email protected], ~160 Kbps
Аудио: AAC, 1 ch, 53, 4 Kbps
Общее
Полное имя : OTUS PHP-разработчик. Часть 2_5 (2020)13.Как устроен PostgreSQLКак устроен PostgreSQL.mp4
Формат : MPEG-4
Профиль формата : Base Media/Version 2
Идентификатор кодека : mp42 (isom/mp42)
Размер файла : 194 Мбайт
Продолжительность : 2 ч. 5 м.
Режим общего битрейта : Переменный
Общий поток : 216 Кбит/сек
Дата кодирования : UTC 2020-06-18 19: 42: 37
Дата пометки : UTC 2020-06-18 19: 42: 37
Видео
Идентификатор : 2
Формат : AVC
Формат/Информация : Advanced Video Codec
Профиль формата : [email protected]
Настройки формата : CABAC/11 Ref Frames
Параметр CABAC формата : Да
Параметр RefFrames формата : 11 кадров
Идентификатор кодека : avc1
Идентификатор кодека/Информация : Advanced Video Coding
Продолжительность : 2 ч. 5 м.
Битрейт : 160 Кбит/сек
Ширина : 1 920 пикселей
Высота : 1 080 пикселей
Соотношение сторон : 16: 9
Режим частоты кадров : Постоянный
Частота кадров : 25, 000 кадров/сек
Цветовое пространство : YUV
Субдискретизация насыщенности : 4: 2: 0
Битовая глубина : 8 бит
Тип развёртки : Прогрессивная
Бит/(Пиксели*Кадры) : 0.003
Размер потока : 144 Мбайт (74%)
Заголовок : H.264/AVC video
Дата кодирования : UTC 2020-06-18 19: 42: 37
Дата пометки : UTC 2020-06-18 19: 42: 37
Codec configuration box : avcC
Аудио
Идентификатор : 1
Формат : AAC LC
Формат/Информация : Advanced Audio Codec Low Complexity
Идентификатор кодека : mp4a-40-2
Продолжительность : 2 ч. 5 м.
Вид битрейта : Переменный
Битрейт : 53, 4 Кбит/сек
Максимальный битрейт : 130 Кбит/сек
Каналы : 1 канал
Channel layout : C
Частота : 32, 0 КГц
Частота кадров : 31, 250 кадров/сек (1024 SPF)
Метод сжатия : С потерями
Размер потока : 47, 9 Мбайт (25%)
Заголовок : AAC audio
Дата кодирования : UTC 2020-06-18 19: 42: 37
Дата пометки : UTC 2020-06-18 19: 42: 37

Другие торренты по теме:

  • OTUS | PHP-разработчик. Часть 2 из 5 [H.264 / 720p-LQ] (2020) PCRec
  • OTUS | PHP-разработчик. Часть 1 из 5 [H.264 / 720p-LQ] (2020) PCRec
  • OTUS | Backend разработчик на PHP (2018) PCRec [H.264]

  • Посетители, находящиеся в группе Гости, не могут оставлять комментарии в данной новости.
    Для авторских прав
    Вход на сайт
    Навигация
    Популярное

    Энди Уорнер | Краткие истории обычных вещей (2019) [PDF]

    (скачиваний: 20)
    Касия Везовски, Патрик Везовски | Я понимаю тебя без слов. Как читать людей по жестам и мимике (2020) [PDF]

    (скачиваний: 14)
    Сара Андерсен | Дрессировщик котиков. Руководство по выживанию в безумном современном мире (2018) [PDF]

    (скачиваний: 11)
    Тристрам Хоули, Корин Грант | Вы приняты! Как получить работу мечты, если у вас нет опыта (2019) [PDF, FB2, EPUB, MOBI]

    (скачиваний: 10)
    Воган Лин | Blender 2.79 Средний уровень: Краб Бот / Blender 2.79 Intermediate: Crab Bot (2017) PCRec [H.264 / 1080p-LQ] [EN]

    (скачиваний: 9)
    Эми Морис | 13 привычек сильных духом людей (2019) [EPUB, PDF]

    (скачиваний: 8)
    Воган Лин | Blender 2.79 Средний уровень: Sci Fi коридор / Blender 2.79 Intermediate: Sci Fi Corridor (2018) PCRec [H.264 / 1080p-LQ] [EN]

    (скачиваний: 7)
    Воган Лин | Blender 2.8 Продвинутый: Грузовой космический корабль / Blender 2.8 Advanced: Cargo Spaceship (2019) PCRec [H.264 / 1080p-LQ] [EN]

    (скачиваний: 6)
    Василий Каталкин | Интересное проклятие (2020) [FB2]

    (скачиваний: 5)
    Олег Дивов | Серия: Новый Дивов [10 книг. Обновляемая] (2012-2016) [FB2]

    (скачиваний: 4)