Подписывайся на наш канал в Telegram https://t.me/torrentok и получи доступ к торрентам без ограничений!

Михаил Русаков | Создание игр на Unreal Engine 4 (2020) PCRec торрент скачать бесплатно

Михаил Русаков | Создание игр на Unreal Engine 4 (2020) PCRecАвтор: Михаил Русаков
Жанр: Программирование, дизайн

Описание

Подробнейший пошаговый видеокурс, который состоит из 184 уроков общей продолжительностью более 41 часа, который состоит из 12 модулей:
1. Введение
2. Основы работы в движке
3. Дизайн уровней
4. Аудио
5. Материалы
6. Основы программирования
7. Объектно-ориентированное программирование
8. Виджеты
9. Анимация
10. Системы частиц
11. Cinematics
12. Мультиплеер
А также бонусные уроки:
- динамическая смена дня и ночи
- создание динамической погоды
- создание искусственного интеллекта для NPC
- создание игры под мобильные устройства
- создание прототипа RPG с открытым миром
Продолжительность: 43: 24: 50
Качество видео: PCRec
Видео: AVC/H.264, 1920x1080, ~1024 Kbps
Аудио: AAC, 2 ch, 128 Kbps
Общее
Полное имя : Русаков Михаил Создание игр на Unreal Engine 4 (2020)1. Динамическая смена дня и ночиУрок 1. Создание механизма изменения времени.mp4
Формат : MPEG-4
Профиль формата : Base Media/Version 2
Идентификатор кодека : mp42 (isom/iso2/avc1/mp41)
Размер файла : 148 Мбайт
Продолжительность : 17 м. 52 с.
Общий поток : 1 162 Кбит/сек
Дата кодирования : UTC 2020-08-03 21: 54: 38
Дата пометки : UTC 2020-08-03 21: 54: 38
Программа кодирования : HandBrake 1.3.3 2020061300
Видео
Идентификатор : 1
Формат : AVC
Формат/Информация : Advanced Video Codec
Профиль формата : [email protected]
Настройки формата : CABAC/4 Ref Frames
Параметр CABAC формата : Да
Параметр RefFrames формата : 4 кадра
Идентификатор кодека : avc1
Идентификатор кодека/Информация : Advanced Video Coding
Продолжительность : 17 м. 52 с.
Битрейт : 1 024 Кбит/сек
Ширина : 1 920 пикселей
Высота : 1 080 пикселей
Соотношение сторон : 16: 9
Режим частоты кадров : Постоянный
Частота кадров : 30, 000 кадров/сек
Цветовое пространство : YUV
Субдискретизация насыщенности : 4: 2: 0
Битовая глубина : 8 бит
Тип развёртки : Прогрессивная
Бит/(Пиксели*Кадры) : 0.016
Размер потока : 131 Мбайт (88%)
Библиотека кодирования : x264 core 157 r2935 545de2f
Дата кодирования : UTC 2020-08-03 21: 54: 38
Дата пометки : UTC 2020-08-03 21: 54: 38
Цветовой диапазон : Limited
Основные цвета : BT.709
Характеристики трансфера : BT.709
Коэффициенты матрицы : BT.709
Codec configuration box : avcC
Аудио
Идентификатор : 2
Формат : AAC LC
Формат/Информация : Advanced Audio Codec Low Complexity
Идентификатор кодека : mp4a-40-2
Продолжительность : 17 м. 52 с.
Вид битрейта : Постоянный
Битрейт : 128 Кбит/сек
Каналы : 2 канала
Channel layout : L R
Частота : 44, 1 КГц
Частота кадров : 43, 066 кадра/сек (1024 SPF)
Метод сжатия : С потерями
Размер потока : 16, 4 Мбайт (11%)
Заголовок : Track1
Default : Да
Alternate group : 1
Дата кодирования : UTC 2020-08-03 21: 54: 38
Дата пометки : UTC 2020-08-03 21: 54: 38

Другие торренты по теме:

  • Михаил Русаков | Создание Интернет-магазина на PHP и MySQL [2013] [unpacked] скачать через торрент бесплатно
  • Михаил Русаков | Фреймворк Yii 2.0 с нуля. Пример создaния сaйтa (2015) PCRec [H.264 / 720p]
  • Михаил Русаков | Как сделать сайт-визитку своими руками (2016) [PDF]
  • Михаил Русаков | 11 шагов к созданию своей Web-студии (2016) PCRec [H.264]
  • Михаил Русаков | Проектирование базы данных (2016) PCRec
  • Михаил Русаков | Создание доски объявлений (2016) PCRec
  • Михаил Русаков | Создание и продвижение лендинга под ключ (2016) PCRec
  • Михаил Русаков | Как создать сайт новичку (2016) [PDF]

  • Посетители, находящиеся в группе Гости, не могут оставлять комментарии в данной новости.
    Для авторских прав
    Вход на сайт
    Навигация
    Популярное

    Энди Уорнер | Краткие истории обычных вещей (2019) [PDF]

    (скачиваний: 21)
    Касия Везовски, Патрик Везовски | Я понимаю тебя без слов. Как читать людей по жестам и мимике (2020) [PDF]

    (скачиваний: 16)
    Джейсон Уилкс | Математика в огне. Нескучный неучебник (2020) [PDF]

    (скачиваний: 14)
    Воган Лин | Blender 2.79 Средний уровень: Краб Бот / Blender 2.79 Intermediate: Crab Bot (2017) PCRec [H.264 / 1080p-LQ] [EN]

    (скачиваний: 12)
    Воган Лин | Blender 2.79 Средний уровень: Sci Fi коридор / Blender 2.79 Intermediate: Sci Fi Corridor (2018) PCRec [H.264 / 1080p-LQ] [EN]

    (скачиваний: 11)
    Воган Лин | Blender 2.8 Продвинутый: Грузовой космический корабль / Blender 2.8 Advanced: Cargo Spaceship (2019) PCRec [H.264 / 1080p-LQ] [EN]

    (скачиваний: 10)
    Андреас Штипплер, Норберт Регитниг-Тиллиан | Мышцы. Как у вас дела (2020) [FB2]

    (скачиваний: 9)
    Михаил Савич | «Первый» [11 книг] (2019) [FB2]

    (скачиваний: 8)
    Ренсом Риггз | Цикл «Мисс Перегрин» [6 книг] (2012-2020) [FB2] [Обновляемая]

    (скачиваний: 7)
    Эрик Берн | Игры, в которые играют люди. Люди, которые играют в игры (сборник) (2017) [FB2]

    (скачиваний: 6)