Подписывайся на наш канал в Telegram https://t.me/torrentok и получи доступ к торрентам без ограничений!

Михаил Русаков | Программирование на Python с Нуля до Гуру (2020) PCRec торрент скачать бесплатно

Михаил Русаков | Программирование на Python с Нуля до Гуру (2020) PCRecАвтор: Михаил Русаков
Жанр: Программирование

Описание

Курс обучит вас следующему:
1. Всем базовым вещам в языке Python: установка среды разработки, теоретической части, всем основным конструкциям (переменные, условный оператор, циклы, списки, кортежи, словари и так далее).
2. Использовать множество встроенных в язык полезнейших функций
3. Научит искать, устанавливать и использовать огромное количество самых разных модулей, где сложнейшие задачи уже сделаны за Вас, а Вам нужно лишь просто подключить его и написать всего несколько необходимых Вам строчек кода.
4. Объектно-ориентированному программированию: что это такое, для чего нужно, как это всё использовать в Python.
5. Созданию пользовательского интерфейса.
6. Созданию клиент-серверных приложений.
7. Созданию Backend для сайтов.
Продолжительность: 12: 05: 23
Качество видео: PCRec
Видео: AVC/H.264, 1920x1080, ~725 Kbps
Аудио: AAC, 2 ch, 128 Kbps
Общее
Полное имя : Русаков Михаил Программирование на Python с Нуля до Гуру (2020). Программирование на Python с Нуля до Гуру2. Основы программирования на PythonУрок 2. Переменные и их типы.mp4
Формат : MPEG-4
Профиль формата : Base Media/Version 2
Идентификатор кодека : mp42 (isom/iso2/avc1/mp41)
Размер файла : 102 Мбайт
Продолжительность : 16 м. 34 с.
Общий поток : 862 Кбит/сек
Дата кодирования : UTC 2020-07-22 21: 37: 43
Дата пометки : UTC 2020-07-22 21: 37: 43
Программа кодирования : HandBrake 1.3.3 2020061300
Видео
Идентификатор : 1
Формат : AVC
Формат/Информация : Advanced Video Codec
Профиль формата : [email protected]
Настройки формата : CABAC/4 Ref Frames
Параметр CABAC формата : Да
Параметр RefFrames формата : 4 кадра
Идентификатор кодека : avc1
Идентификатор кодека/Информация : Advanced Video Coding
Продолжительность : 16 м. 34 с.
Битрейт : 725 Кбит/сек
Номинальный битрейт : 768 Кбит/сек
Ширина : 1 920 пикселей
Высота : 1 080 пикселей
Соотношение сторон : 16: 9
Режим частоты кадров : Постоянный
Частота кадров : 30, 000 кадров/сек
Цветовое пространство : YUV
Субдискретизация насыщенности : 4: 2: 0
Битовая глубина : 8 бит
Тип развёртки : Прогрессивная
Бит/(Пиксели*Кадры) : 0.012
Размер потока : 85, 9 Мбайт (84%)
Библиотека кодирования : x264 core 157 r2935 545de2f
Дата кодирования : UTC 2020-07-22 21: 37: 43
Дата пометки : UTC 2020-07-22 21: 37: 43
Цветовой диапазон : Limited
Основные цвета : BT.709
Характеристики трансфера : BT.709
Коэффициенты матрицы : BT.709
Codec configuration box : avcC
Аудио
Идентификатор : 2
Формат : AAC LC
Формат/Информация : Advanced Audio Codec Low Complexity
Идентификатор кодека : mp4a-40-2
Продолжительность : 16 м. 34 с.
Вид битрейта : Постоянный
Битрейт : 128 Кбит/сек
Каналы : 2 канала
Channel layout : L R
Частота : 44, 1 КГц
Частота кадров : 43, 066 кадра/сек (1024 SPF)
Метод сжатия : С потерями
Размер потока : 15, 2 Мбайт (15%)
Заголовок : Stereo
Default : Да
Alternate group : 1
Дата кодирования : UTC 2020-07-22 21: 37: 43
Дата пометки : UTC 2020-07-22 21: 37: 43

Другие торренты по теме:

  • Михаил Русаков | Создание Интернет-магазина на PHP и MySQL [2013] [unpacked] скачать через торрент бесплатно
  • Михаил Русаков | Фреймворк Yii 2.0 с нуля. Пример создaния сaйтa (2015) PCRec [H.264 / 720p]
  • Михаил Русаков | Как сделать сайт-визитку своими руками (2016) [PDF]
  • Михаил Русаков | 11 шагов к созданию своей Web-студии (2016) PCRec [H.264]
  • Михаил Русаков | Проектирование базы данных (2016) PCRec
  • Михаил Русаков | Создание доски объявлений (2016) PCRec
  • Михаил Русаков | Создание и продвижение лендинга под ключ (2016) PCRec
  • Михаил Русаков | Как создать сайт новичку (2016) [PDF]

  • Посетители, находящиеся в группе Гости, не могут оставлять комментарии в данной новости.
    Для авторских прав
    Вход на сайт
    Навигация
    Популярное

    Энди Уорнер | Краткие истории обычных вещей (2019) [PDF]

    (скачиваний: 21)
    Касия Везовски, Патрик Везовски | Я понимаю тебя без слов. Как читать людей по жестам и мимике (2020) [PDF]

    (скачиваний: 15)
    Джейсон Уилкс | Математика в огне. Нескучный неучебник (2020) [PDF]

    (скачиваний: 14)
    Воган Лин | Blender 2.79 Средний уровень: Краб Бот / Blender 2.79 Intermediate: Crab Bot (2017) PCRec [H.264 / 1080p-LQ] [EN]

    (скачиваний: 12)
    Воган Лин | Blender 2.79 Средний уровень: Sci Fi коридор / Blender 2.79 Intermediate: Sci Fi Corridor (2018) PCRec [H.264 / 1080p-LQ] [EN]

    (скачиваний: 11)
    Воган Лин | Blender 2.8 Продвинутый: Грузовой космический корабль / Blender 2.8 Advanced: Cargo Spaceship (2019) PCRec [H.264 / 1080p-LQ] [EN]

    (скачиваний: 10)
    Эми Морис | 13 привычек сильных духом людей (2019) [EPUB, PDF]

    (скачиваний: 9)
    И.В. Блохина и др. | Большая книга для каждого образованного человека. 10000 фактов, дат, событий (2018) [PDF]

    (скачиваний: 8)
    Андреас Штипплер, Норберт Регитниг-Тиллиан | Мышцы. Как у вас дела (2020) [FB2]

    (скачиваний: 7)
    Олег Дивов и др. | Цифрономикон [сборник] (2014) [FB2] скачать через торрент бесплатно

    (скачиваний: 6)