Подписывайся на наш канал в Telegram https://t.me/torrentok и получи доступ к торрентам без ограничений!

Михаил Русаков | Программирование на JavaScript с Нуля до Гуру 2.0 (2020) PCRec торрент скачать бесплатно

Михаил Русаков | Программирование на JavaScript с Нуля до Гуру 2.0 (2020) PCRecАвтор: Михаил Русаков
Жанр: Программирование

Описание

JavaScript – это на данный момент самый популярный и самый востребованный язык программирования в мире. И тут стоит отметить, что именно в последние годы его популярность резко выросла, а его область применения заметно расширилась. Когда я ещё несколько лет назад записывал свой первый курс по JavaScript (который назывался JavaScript, jQuery и Ajax с Нуля до Гуру), фактически область применения этого языка ограничивалась лишь Web-страницами. Сейчас же JavaScript используют в самых разных областях, и это означает, что любой уважающий себя программист, обязан его знать.
Продолжительность: 26: 50: 48
Качество видео: PCRec
Видео: AVC/H.264, 1280x720, ~768 Kbps
Аудио: AAC, 2 ch, 128 Kbps
Общее
Полное имя : Михаил Русаков Программирование на JavaScript с Нуля до Гуру 2.0 (2020). Программирование на JavaScript с Нуля до Гуру 2.01. ВведениеУрок 1. Как проходить курс.mp4
Формат : MPEG-4
Профиль формата : Base Media/Version 2
Идентификатор кодека : mp42 (isom/iso2/avc1/mp41)
Размер файла : 37, 9 Мбайт
Продолжительность : 5 м. 51 с.
Общий поток : 905 Кбит/сек
Дата кодирования : UTC 2020-08-04 12: 03: 25
Дата пометки : UTC 2020-08-04 12: 03: 25
Программа кодирования : HandBrake 1.3.3 2020061300
Видео
Идентификатор : 1
Формат : AVC
Формат/Информация : Advanced Video Codec
Профиль формата : [email protected]
Настройки формата : CABAC/4 Ref Frames
Параметр CABAC формата : Да
Параметр RefFrames формата : 4 кадра
Идентификатор кодека : avc1
Идентификатор кодека/Информация : Advanced Video Coding
Продолжительность : 5 м. 51 с.
Битрейт : 768 Кбит/сек
Ширина : 1 920 пикселей
Высота : 1 080 пикселей
Соотношение сторон : 16: 9
Режим частоты кадров : Постоянный
Частота кадров : 30, 000 кадров/сек
Цветовое пространство : YUV
Субдискретизация насыщенности : 4: 2: 0
Битовая глубина : 8 бит
Тип развёртки : Прогрессивная
Бит/(Пиксели*Кадры) : 0.012
Размер потока : 32, 2 Мбайт (85%)
Библиотека кодирования : x264 core 157 r2935 545de2f
Дата кодирования : UTC 2020-08-04 12: 03: 25
Дата пометки : UTC 2020-08-04 12: 03: 25
Цветовой диапазон : Limited
Основные цвета : BT.709
Характеристики трансфера : BT.709
Коэффициенты матрицы : BT.709
Codec configuration box : avcC
Аудио
Идентификатор : 2
Формат : AAC LC
Формат/Информация : Advanced Audio Codec Low Complexity
Идентификатор кодека : mp4a-40-2
Продолжительность : 5 м. 51 с.
Вид битрейта : Постоянный
Битрейт : 128 Кбит/сек
Каналы : 2 канала
Channel layout : L R
Частота : 44, 1 КГц
Частота кадров : 43, 066 кадра/сек (1024 SPF)
Метод сжатия : С потерями
Размер потока : 5, 37 Мбайт (14%)
Заголовок : Track1
Default : Да
Alternate group : 1
Дата кодирования : UTC 2020-08-04 12: 03: 25
Дата пометки : UTC 2020-08-04 12: 03: 25

Другие торренты по теме:

  • Михаил Русаков | Создание Интернет-магазина на PHP и MySQL [2013] [unpacked] скачать через торрент бесплатно
  • Михаил Русаков | Фреймворк Yii 2.0 с нуля. Пример создaния сaйтa (2015) PCRec [H.264 / 720p]
  • Михаил Русаков | Как сделать сайт-визитку своими руками (2016) [PDF]
  • Михаил Русаков | 11 шагов к созданию своей Web-студии (2016) PCRec [H.264]
  • Михаил Русаков | Проектирование базы данных (2016) PCRec
  • Михаил Русаков | Создание доски объявлений (2016) PCRec
  • Михаил Русаков | Создание и продвижение лендинга под ключ (2016) PCRec
  • Михаил Русаков | Как создать сайт новичку (2016) [PDF]

  • Посетители, находящиеся в группе Гости, не могут оставлять комментарии в данной новости.
    Для авторских прав
    Вход на сайт
    Навигация
    Популярное

    Энди Уорнер | Краткие истории обычных вещей (2019) [PDF]

    (скачиваний: 22)
    Касия Везовски, Патрик Везовски | Я понимаю тебя без слов. Как читать людей по жестам и мимике (2020) [PDF]

    (скачиваний: 18)
    Джейсон Уилкс | Математика в огне. Нескучный неучебник (2020) [PDF]

    (скачиваний: 14)
    Андреас Штипплер, Норберт Регитниг-Тиллиан | Мышцы. Как у вас дела (2020) [FB2]

    (скачиваний: 12)
    Воган Лин | Blender 2.79 Средний уровень: Sci Fi коридор / Blender 2.79 Intermediate: Sci Fi Corridor (2018) PCRec [H.264 / 1080p-LQ] [EN]

    (скачиваний: 11)
    Воган Лин | Blender 2.8 Продвинутый: Грузовой космический корабль / Blender 2.8 Advanced: Cargo Spaceship (2019) PCRec [H.264 / 1080p-LQ] [EN]

    (скачиваний: 10)
    Елена Перелыгина | НЛП: манипуляция или ключ к успеху (2020) [EPUB]

    (скачиваний: 9)
    Наоми Вульф | Вагина. Новая история женской сексуальности (2018) [FB2]

    (скачиваний: 8)
    Эрик Берн | Игры, в которые играют люди. Люди, которые играют в игры (сборник) (2017) [FB2]

    (скачиваний: 7)
    Марк Уолинн | Это началось не с тебя (2020) [FB2]

    (скачиваний: 6)