Подписывайся на наш канал в Telegram https://t.me/torrentok и получи доступ к торрентам без ограничений!

[Udemy] Денис Токарев | Полный курс по JavaScript - понимаем тонкости языка (2020) PCRec торрент скачать бесплатно

[Udemy] Денис Токарев | Полный курс по JavaScript - понимаем тонкости языка (2020) PCRecАвтор: Денис Токарев
Производство: Udemy
Жанр: Программирование

Описание

Данный курс нацелен на то, чтобы дать исчерпывающую информацию о языке JavaScript.
Каждая тема в лекциях раскрывается полностью с нуля, и постепенно углубляется в различные тонкости и особенности.
Приобретенный базис позволит вам с легкостью вникнуть и без труда изучить любой современный фреймворк (Angular, Vue, React, Node.js, React Native).
В каждой лекции тема разбирается и закрепляется с помощью примеров из реальных проектов.
Продолжительность: 02: 10: 54
Качество видео: PCRec
Видео: AVC/H.264, 1280x720, ~367 Kbps
Аудио: AAC, 2 ch, 128 Kbps
Общее
Полное имя : Udemy Полный курс по JavaScript - понимаем тонкости языка (2020)02 Типы данных.mp4
Формат : MPEG-4
Профиль формата : Base Media
Идентификатор кодека : isom (isom/iso2/avc1/mp41)
Размер файла : 10, 9 Мбайт
Продолжительность : 3 м. 1 с.
Общий поток : 503 Кбит/сек
Программа кодирования : Lavf58.12.100
Видео
Идентификатор : 1
Формат : AVC
Формат/Информация : Advanced Video Codec
Профиль формата : [email protected]
Настройки формата : CABAC/4 Ref Frames
Параметр CABAC формата : Да
Параметр RefFrames формата : 4 кадра
Параметр GOP формата : M=4, N=60
Идентификатор кодека : avc1
Идентификатор кодека/Информация : Advanced Video Coding
Продолжительность : 3 м. 1 с.
Битрейт : 367 Кбит/сек
Номинальный битрейт : 3 000 Кбит/сек
Ширина : 1 280 пикселей
Высота : 720 пикселей
Соотношение сторон : 1, 717
Режим частоты кадров : Постоянный
Частота кадров : 30, 000 кадров/сек
Цветовое пространство : YUV
Субдискретизация насыщенности : 4: 2: 0
Битовая глубина : 8 бит
Тип развёртки : Прогрессивная
Бит/(Пиксели*Кадры) : 0.013
Размер потока : 7, 94 Мбайт (73%)
Библиотека кодирования : x264 core 148
Codec configuration box : avcC
Аудио
Идентификатор : 2
Формат : AAC LC
Формат/Информация : Advanced Audio Codec Low Complexity
Идентификатор кодека : mp4a-40-2
Продолжительность : 3 м. 1 с.
Вид битрейта : Постоянный
Битрейт : 128 Кбит/сек
Каналы : 2 канала
Channel layout : L R
Частота : 48, 0 КГц
Частота кадров : 46, 875 кадров/сек (1024 SPF)
Метод сжатия : С потерями
Размер потока : 2, 77 Мбайт (25%)
Default : Да
Alternate group : 1
Скриншоты:


Время раздачи: 24/7 (до появления первых 3-5 скачавших)

Другие торренты по теме:

  • [Udemy] Konstantin Kokorin | Изучаем Dart (2020) PCRec
  • [Udemy] Danny Connell | PWA с Vue JS, Quasar и Firebase (с NodeJS и Express) / PWA with Vue JS, Quasar & Firebase (with NodeJS & Express) (2020) PCRec [En / En Sub]
  • [Udemy] Stephane Maarek | gRPC [Java]: создание современных API и микросервисов / gRPC [Java] Master Class: Build Modern API & Micro services (2020) PCRec [En]
  • [Udemy] Ныгметжан Кузенбаев | Power BI для начинающих (2020) PCRec
  • [Udemy] Stephan Dowless | Клон Twitter iOS | Swift 5 / Firebase | Без Storyboards | MVVM / Twitter iOS Clone | Swift 5 / Firebase | No Storyboards | MVVM (2020) PCRec [En]
  • [Udemy] Roman Leinwather | С нуля до дизайнера приложений (веб, мобильные устройства, планшеты) / From Zero to Application Designer (Web, mobile, tablet) (2020) PCRec [En / En Sub]
  • [Udemy] Maximilian Schwarzmüller | Ускоренное обучение JavaScript / Accelerated JavaScript Training (2020) PCRec [En]
  • Udemy | Изучение взлома Wi-fi паролей / ключей (WEP / WPA / WPA2) / Learn Cracking Wi-fi Passwords / Keys (WEP / WPA / WPA2) (2015) PCRec [EN]

  • Посетители, находящиеся в группе Гости, не могут оставлять комментарии в данной новости.
    Для авторских прав
    Вход на сайт
    Навигация
    Популярное

    Энди Уорнер | Краткие истории обычных вещей (2019) [PDF]

    (скачиваний: 21)
    Касия Везовски, Патрик Везовски | Я понимаю тебя без слов. Как читать людей по жестам и мимике (2020) [PDF]

    (скачиваний: 15)
    Джейсон Уилкс | Математика в огне. Нескучный неучебник (2020) [PDF]

    (скачиваний: 14)
    Воган Лин | Blender 2.79 Средний уровень: Краб Бот / Blender 2.79 Intermediate: Crab Bot (2017) PCRec [H.264 / 1080p-LQ] [EN]

    (скачиваний: 12)
    Воган Лин | Blender 2.79 Средний уровень: Sci Fi коридор / Blender 2.79 Intermediate: Sci Fi Corridor (2018) PCRec [H.264 / 1080p-LQ] [EN]

    (скачиваний: 11)
    Воган Лин | Blender 2.8 Продвинутый: Грузовой космический корабль / Blender 2.8 Advanced: Cargo Spaceship (2019) PCRec [H.264 / 1080p-LQ] [EN]

    (скачиваний: 10)
    Эми Морис | 13 привычек сильных духом людей (2019) [EPUB, PDF]

    (скачиваний: 9)
    И.В. Блохина и др. | Большая книга для каждого образованного человека. 10000 фактов, дат, событий (2018) [PDF]

    (скачиваний: 8)
    Андреас Штипплер, Норберт Регитниг-Тиллиан | Мышцы. Как у вас дела (2020) [FB2]

    (скачиваний: 7)
    Олег Дивов и др. | Цифрономикон [сборник] (2014) [FB2] скачать через торрент бесплатно

    (скачиваний: 6)