Подписывайся на наш канал в Telegram https://t.me/torrentok и получи доступ к торрентам без ограничений!

Highlights | Коммерческая иллюстрация (2020) PCRec торрент скачать бесплатно

Highlights | Коммерческая иллюстрация (2020) PCRecАвтор: Highlights
Жанр: Дизайн

Описание

Этот курс идеален для начинающих!
Курс по коммерческой иллюстрации ведет Олег Герт. Работает иллюстратором и арт-директором в международном рекламном агентстве. Рисует с детства, окончил художественную школу с красным дипломом. Коммерческой иллюстрацией занимается около 10 лет.
Рисует в основном на планшете Wacom Intuos в Photoshop. Иногда руками в технике dotwork. За эти годы поработал с разными заказчиками, как из России, так и из за рубежа. Как с частными заказчиками, так и с компаниями.
За это время стиль отрисовки видоизменялся, пробовал новое, оттачивал старое, сейчас в арсенале несколько немного разных стилей которые Олег предлагает заказчику. Любит рисовать принты для одежды, постеры, рекламные иллюстрации
Продолжительность: 07: 14: 06
Качество видео: PCRec
Видео: AVC/H.264, [email protected], ~3826 Kbps
Аудио: AAC, 2 ch, 253 Kbps
Общее
Полное имя : Highlights Коммерческая иллюстрация (2020)201.mp4
Формат : MPEG-4
Профиль формата : Base Media/Version 2
Идентификатор кодека : mp42 (mp42/mp41/isom/avc1)
Размер файла : 269 Мбайт
Продолжительность : 9 м. 11 с.
Режим общего битрейта : Переменный
Общий поток : 4 084 Кбит/сек
Дата кодирования : UTC 2020-06-22 14: 18: 50
Дата пометки : UTC 2020-06-22 14: 18: 50
Видео
Идентификатор : 1
Формат : AVC
Формат/Информация : Advanced Video Codec
Профиль формата : [email protected]
Настройки формата : CABAC/5 Ref Frames
Параметр CABAC формата : Да
Параметр RefFrames формата : 5 кадров
Идентификатор кодека : avc1
Идентификатор кодека/Информация : Advanced Video Coding
Продолжительность : 9 м. 11 с.
Битрейт : 3 826 Кбит/сек
Ширина : 1 920 пикселей
Высота : 1 080 пикселей
Соотношение сторон : 16: 9
Режим частоты кадров : Постоянный
Частота кадров : 25, 000 кадров/сек
Цветовое пространство : YUV
Субдискретизация насыщенности : 4: 2: 0
Битовая глубина : 8 бит
Тип развёртки : Прогрессивная
Бит/(Пиксели*Кадры) : 0.074
Размер потока : 252 Мбайт (94%)
Библиотека кодирования : x264 core 160 r10 22fcbe1
Дата кодирования : UTC 2020-06-22 14: 18: 50
Дата пометки : UTC 2020-06-22 14: 18: 50
Цветовой диапазон : Limited
Основные цвета : BT.709
Характеристики трансфера : BT.709
Коэффициенты матрицы : BT.709
Codec configuration box : avcC
Аудио
Идентификатор : 2
Формат : AAC LC
Формат/Информация : Advanced Audio Codec Low Complexity
Идентификатор кодека : mp4a-40-2
Продолжительность : 9 м. 11 с.
Вид битрейта : Переменный
Битрейт : 253 Кбит/сек
Каналы : 2 канала
Channel layout : L R
Частота : 48, 0 КГц
Частота кадров : 46, 875 кадров/сек (1024 SPF)
Метод сжатия : С потерями
Размер потока : 16, 7 Мбайт (6%)
Дата кодирования : UTC 2020-06-22 14: 18: 50
Дата пометки : UTC 2020-06-22 14: 18: 50
Скриншоты:


Время раздачи: 24/7 (до появления первых 3-5 скачавших)

Другие торренты по теме:

  • Yes - Progeny: Highlights From Seventy-Two (2015) [MP3|320 кб / с]<Progressive Rock> скачать через торрент бесплатно
  • Highlights School | Портретная обработка (2015) PCRec [H.264] скачать через торрент бесплатно
  • Highlights School | Продвинутый курс Photoshop (2015) PCRec [H.264] скачать через торрент бесплатно
  • Highlights | Основы детской фотографии (2015) PCRec [H.264 / 720p] скачать через торрент бесплатно
  • VA - Gluck: Orfeo ed Euridice - Orpheo - Highlights Of The Versions For Vienna (1762) And Paris (1774) (2015) [FLAC 2.0|24 / 96|Lossless|WEB-DL|tracks] <Classical>
  • VA - Magical World Of Melodies. Orchestral Highlights. (1995), 3CD [FLAC|Lossless|tracks +.cue] <Classical, Orshestral>
  • Wiener Philharmoniker - Highlights From Mozarts Figaro (2007) [FLAC|Lossless|image + .cue] <Opera>
  • Highlights School | Основы веб-дизайна (2015) PCRec [H.264 / 720p]

  • Посетители, находящиеся в группе Гости, не могут оставлять комментарии в данной новости.
    Для авторских прав
    Вход на сайт
    Навигация
    Популярное

    Энди Уорнер | Краткие истории обычных вещей (2019) [PDF]

    (скачиваний: 22)
    Касия Везовски, Патрик Везовски | Я понимаю тебя без слов. Как читать людей по жестам и мимике (2020) [PDF]

    (скачиваний: 18)
    Джейсон Уилкс | Математика в огне. Нескучный неучебник (2020) [PDF]

    (скачиваний: 14)
    Андреас Штипплер, Норберт Регитниг-Тиллиан | Мышцы. Как у вас дела (2020) [FB2]

    (скачиваний: 12)
    Воган Лин | Blender 2.79 Средний уровень: Sci Fi коридор / Blender 2.79 Intermediate: Sci Fi Corridor (2018) PCRec [H.264 / 1080p-LQ] [EN]

    (скачиваний: 11)
    Воган Лин | Blender 2.8 Продвинутый: Грузовой космический корабль / Blender 2.8 Advanced: Cargo Spaceship (2019) PCRec [H.264 / 1080p-LQ] [EN]

    (скачиваний: 10)
    Елена Перелыгина | НЛП: манипуляция или ключ к успеху (2020) [EPUB]

    (скачиваний: 9)
    Наоми Вульф | Вагина. Новая история женской сексуальности (2018) [FB2]

    (скачиваний: 8)
    Эрик Берн | Игры, в которые играют люди. Люди, которые играют в игры (сборник) (2017) [FB2]

    (скачиваний: 7)
    Марк Уолинн | Это началось не с тебя (2020) [FB2]

    (скачиваний: 6)