Подписывайся на наш канал в Telegram https://t.me/torrentok и получи доступ к торрентам без ограничений!

Арсен Маркарян | Трансляции (2020) WEB-DLRip торрент скачать бесплатно

Арсен Маркарян | Трансляции (2020) WEB-DLRipАвтор: Арсен Маркарян
Жанр: Трансляция, Стрим, Психология

Описание

Трансляции Арсена Маркаряна с различных площадок. Видео из разных источников, возможны частичные повторы.
Из обсуждения курса одноименого автора:
Не понятно зачем фэйс снимать на разрешении FullHD чтобы понизив его до 640 вытягиватьснова в FullHD да ещё и с 265 кодеком. Короче сделать всё видео 30Х40 и места меньше. А ещё можно просто фото и пару фраз. Из 15 мин монологов ( с учётом повторений) можно обойтись и одной фразой. Навеное. А промотр такой ... не опасен ли? Для нормальных людей я имел ввиду.
Ответ:
изначально видео были в 720p, но весели под 140гб при изначально низком уровне съёмки, поэтому были перекодированы с h265 500kbps. Можно слушать аудио, но с мимикой и жестами более доходчиво. А промотр такой ... не опасен ли? Для нормальных людей я имел ввиду - нормальные люди для каждого свои, думаю большинство даже вникать не станут о чем вещает бородатый бабуин, но те кто ищет эту инфу найдут раздачу полезной.
Продолжительность: ~900: 00: 00
Качество видео: WEB-DLRip
Видео: HEVC/H.265, 1280х720, ~400-550 kbps
Аудио: AAC, 2 ch, 128 kbps
General
Complete name : F: Арсен Маркарян ТрансляцииYouTubeРоль гормонов в жизни человека.mp4
Format : MPEG-4
Format profile : Base Media
Codec ID : isom (isom/iso2/mp41)
File size : 262 MiB
Duration : 1 h 3 min
Overall bit rate mode : Variable
Overall bit rate : 576 kb/s
Encoded date : UTC 2018-08-02 15: 09: 36
Tagged date : UTC 2018-08-02 15: 09: 36
Video
ID : 1
Format : HEVC
Format/Info : High Efficiency Video Coding
Format profile : [email protected]@Main
Codec ID : hvc1
Codec ID/Info : High Efficiency Video Coding
Duration : 1 h 3 min
Bit rate : 450 kb/s
Width : 1 280 pixels
Height : 720 pixels
Display aspect ratio : 16: 9
Frame rate mode : Constant
Frame rate : 25.000 FPS
Color space : YUV
Chroma subsampling : 4: 2: 0
Bit depth : 8 bits
Bits/(Pixel*Frame) : 0.020
Stream size : 205 MiB (78%)
Language : English
Encoded date : UTC 2018-08-02 15: 09: 36
Tagged date : UTC 2018-08-02 15: 09: 36
Codec configuration box : hvcC
Audio
ID : 2
Format : AAC LC
Format/Info : Advanced Audio Codec Low Complexity
Codec ID : mp4a-40-2
Duration : 1 h 3 min
Bit rate mode : Variable
Bit rate : 120 kb/s
Maximum bit rate : 128 kb/s
Channel(s) : 2 channels
Channel layout : L R
Sampling rate : 44.1 kHz
Frame rate : 43.066 FPS (1024 SPF)
Compression mode : Lossy
Stream size : 54.8 MiB (21%)
Language : English
Default : Yes
Alternate group : 1
Encoded date : UTC 2018-08-02 15: 09: 36
Tagged date : UTC 2018-08-02 15: 09: 36

Другие торренты по теме:

  • Арсен Маркарян | Собрание Тестостерон Release (2015-2020) WEB-DL

  • Посетители, находящиеся в группе Гости, не могут оставлять комментарии в данной новости.
    Для авторских прав
    Вход на сайт
    Навигация
    Популярное

    Энди Уорнер | Краткие истории обычных вещей (2019) [PDF]

    (скачиваний: 21)
    Касия Везовски, Патрик Везовски | Я понимаю тебя без слов. Как читать людей по жестам и мимике (2020) [PDF]

    (скачиваний: 15)
    Джейсон Уилкс | Математика в огне. Нескучный неучебник (2020) [PDF]

    (скачиваний: 14)
    Воган Лин | Blender 2.79 Средний уровень: Краб Бот / Blender 2.79 Intermediate: Crab Bot (2017) PCRec [H.264 / 1080p-LQ] [EN]

    (скачиваний: 12)
    Воган Лин | Blender 2.79 Средний уровень: Sci Fi коридор / Blender 2.79 Intermediate: Sci Fi Corridor (2018) PCRec [H.264 / 1080p-LQ] [EN]

    (скачиваний: 11)
    Воган Лин | Blender 2.8 Продвинутый: Грузовой космический корабль / Blender 2.8 Advanced: Cargo Spaceship (2019) PCRec [H.264 / 1080p-LQ] [EN]

    (скачиваний: 10)
    Эми Морис | 13 привычек сильных духом людей (2019) [EPUB, PDF]

    (скачиваний: 9)
    И.В. Блохина и др. | Большая книга для каждого образованного человека. 10000 фактов, дат, событий (2018) [PDF]

    (скачиваний: 8)
    Андреас Штипплер, Норберт Регитниг-Тиллиан | Мышцы. Как у вас дела (2020) [FB2]

    (скачиваний: 7)
    Олег Дивов и др. | Цифрономикон [сборник] (2014) [FB2] скачать через торрент бесплатно

    (скачиваний: 6)