Подписывайся на наш канал в Telegram https://t.me/torrentok и получи доступ к торрентам без ограничений!

GO IT | QA Engineer (2020) PCRec торрент скачать бесплатно

GO IT | QA Engineer (2020) PCRecАвтор: GO IT
Жанр: Тестирование

Описание

QA Engineer — IT-специалист, ответственный за качество программного обеспечения. Вы наверняка слышали сленговое название этой профессии — тестировщик.
QA-специалист тестирует работу сайтов, игр, приложений, имитируя действия пользователей. Он взаимодействует с ПО на всех этапах разработки, ищет ошибки и помогает устранить их.
Именно благодаря работе QA мы пользуемся логичными и отлаженными приложениями.
Это курс после которого вы будете полностью готовы к старту успешной карьеры QA Engineer
Продолжительность: 64: 14: 20
Качество видео: PCRec
Язык озвучки: Русский
Видео: AVC/H.264, 1280x720, ~325 Kbps
Аудио: AAC, 2 ch, 126 Kbps
Общее
Полное имя : GO IT QA EngineerQA_Ч11GoQAOnline Module 1 Part 1 -Причины возникновения QA-специальности, её суть и цели.mp4
Формат : MPEG-4
Профиль формата : Base Media/Version 2
Идентификатор кодека : mp42 (isom/mp42)
Размер файла : 48, 4 Мбайт
Продолжительность : 14 м. 54 с.
Режим общего битрейта : Переменный
Общий поток : 454 Кбит/сек
Дата кодирования : UTC 2016-08-11 14: 08: 18
Дата пометки : UTC 2016-08-11 14: 08: 18
gsst : 0
gstd : 894107
Видео
Идентификатор : 1
Формат : AVC
Формат/Информация : Advanced Video Codec
Профиль формата : [email protected]
Настройки формата : CABAC/3 Ref Frames
Параметр CABAC формата : Да
Параметр RefFrames формата : 3 кадра
Идентификатор кодека : avc1
Идентификатор кодека/Информация : Advanced Video Coding
Продолжительность : 14 м. 54 с.
Битрейт : 325 Кбит/сек
Ширина : 1 280 пикселей
Высота : 720 пикселей
Соотношение сторон : 16: 9
Режим частоты кадров : Постоянный
Частота кадров : 25, 000 кадров/сек
Цветовое пространство : YUV
Субдискретизация насыщенности : 4: 2: 0
Битовая глубина : 8 бит
Тип развёртки : Прогрессивная
Бит/(Пиксели*Кадры) : 0.014
Размер потока : 34, 7 Мбайт (72%)
Заголовок : ISO Media file produced by Google Inc.
Дата кодирования : UTC 2016-08-11 14: 08: 18
Дата пометки : UTC 2016-08-11 14: 08: 18
Codec configuration box : avcC
Аудио
Идентификатор : 2
Формат : AAC LC
Формат/Информация : Advanced Audio Codec Low Complexity
Идентификатор кодека : mp4a-40-2
Продолжительность : 14 м. 54 с.
Вид битрейта : Переменный
Битрейт : 126 Кбит/сек
Каналы : 2 канала
Channel layout : L R
Частота : 44, 1 КГц
Частота кадров : 43, 066 кадра/сек (1024 SPF)
Метод сжатия : С потерями
Размер потока : 13, 4 Мбайт (28%)
Заголовок : ISO Media file produced by Google Inc.
Дата кодирования : UTC 2016-08-11 14: 08: 18
Дата пометки : UTC 2016-08-11 14: 08: 18

Другие торренты по теме:

  • OTUS | Python QA Engineer (2019) PCRec [H.264]
  • OTUS | Data Engineer (2019) PCRec [H.264]
  • OTUS | Deep Learning Engineer (2018) PCRec
  • OTUS | Java QA Engineer (2019) PCRec

  • Посетители, находящиеся в группе Гости, не могут оставлять комментарии в данной новости.
    Для авторских прав
    Вход на сайт
    Навигация
    Популярное

    Энди Уорнер | Краткие истории обычных вещей (2019) [PDF]

    (скачиваний: 22)
    Касия Везовски, Патрик Везовски | Я понимаю тебя без слов. Как читать людей по жестам и мимике (2020) [PDF]

    (скачиваний: 18)
    Джейсон Уилкс | Математика в огне. Нескучный неучебник (2020) [PDF]

    (скачиваний: 14)
    Андреас Штипплер, Норберт Регитниг-Тиллиан | Мышцы. Как у вас дела (2020) [FB2]

    (скачиваний: 12)
    Воган Лин | Blender 2.79 Средний уровень: Sci Fi коридор / Blender 2.79 Intermediate: Sci Fi Corridor (2018) PCRec [H.264 / 1080p-LQ] [EN]

    (скачиваний: 11)
    Воган Лин | Blender 2.8 Продвинутый: Грузовой космический корабль / Blender 2.8 Advanced: Cargo Spaceship (2019) PCRec [H.264 / 1080p-LQ] [EN]

    (скачиваний: 10)
    Елена Перелыгина | НЛП: манипуляция или ключ к успеху (2020) [EPUB]

    (скачиваний: 9)
    Наоми Вульф | Вагина. Новая история женской сексуальности (2018) [FB2]

    (скачиваний: 8)
    Эрик Берн | Игры, в которые играют люди. Люди, которые играют в игры (сборник) (2017) [FB2]

    (скачиваний: 7)
    Марк Уолинн | Это началось не с тебя (2020) [FB2]

    (скачиваний: 6)