Подписывайся на наш канал в Telegram https://t.me/torrentok и получи доступ к торрентам без ограничений!

Роман Круглов | Рисунок карандашом 2.0 (2020) HDTVRip торрент скачать бесплатно

Роман Круглов | Рисунок карандашом 2.0 (2020) HDTVRipАвтор: Роман Круглов
Жанр: Рисование

Описание

Большой курс по академическому рисунку, разработанный на базе программ ведущих художественных ВУЗов России: теория и практика. Освойте азбуку любого художника - академический рисунок карандашом.
Продолжительность: 22: 48: 15
Качество видео: HDTVRip
Видео: AVC/H.264, 1280х720, ~1 396 kb/s
Аудио: AAC, 2 ch, ~256 Kbps
Штриховка.mp4
Format : MPEG-4
Format profile : Base Media/Version 2
Codec ID : mp42 (isom/mp42)
File size : 171 MiB
Duration : 28 min 37 s
Overall bit rate mode : Variable
Overall bit rate : 833 kb/s
Encoded date : UTC 2020-05-05 10: 58: 15
Tagged date : UTC 2020-05-05 10: 58: 15
Video
ID : 1
Format : AVC
Format/Info : Advanced Video Codec
Format profile : [email protected]
Format settings : CABAC/3 Ref Frames
Format settings, CABAC : Yes
Format settings, Reference frames : 3 frames
Codec ID : avc1
Codec ID/Info : Advanced Video Coding
Duration : 28 min 37 s
Bit rate : 705 kb/s
Width : 1 280 pixels
Height : 720 pixels
Display aspect ratio : 16: 9
Frame rate mode : Constant
Frame rate : 25.000 FPS
Standard : NTSC
Color space : YUV
Chroma subsampling : 4: 2: 0
Bit depth : 8 bits
Scan type : Progressive
Bits/(Pixel*Frame) : 0.025
Stream size : 144 MiB (85%)
Language : English
Encoded date : UTC 2020-05-05 10: 58: 15
Tagged date : UTC 2020-05-05 10: 58: 15
Color range : Limited
Codec configuration box : avcC
Audio
ID : 2
Format : AAC LC
Format/Info : Advanced Audio Codec Low Complexity
Codec ID : mp4a-40-2
Duration : 28 min 37 s
Bit rate mode : Variable
Bit rate : 126 kb/s
Maximum bit rate : 350 kb/s
Channel(s) : 2 channels
Channel layout : L R
Sampling rate : 44.1 kHz
Frame rate : 43.066 FPS (1024 SPF)
Compression mode : Lossy
Stream size : 25.7 MiB (15%)
Language : English
Encoded date : UTC 2020-05-05 10: 58: 15
Tagged date : UTC 2020-05-05 10: 58: 15

Другие торренты по теме:

  • Робер де Борон | Роман о Граале. Роман о Мерлине / LEstoire del Saint Graal. LEstoire de Merlin (1280) [PDF] [FR]
  • Самый обычный роман (Ненормальный роман) / Gajang Botongui Yeonae / Crazy Romance (2019) WEB-DLRip [DVO]
  • Самый обычный роман (Ненормальный роман) / Gajang Botongui Yeonae / Crazy Romance (2019) WEB-DL [H.264 / 1080p-LQ] [DVO]
  • Роман Добрый | Иван Путилин и Клуб червонных валетов (сборник) (2014) [FB2] скачать через торрент бесплатно
  • Роман Злотников | КОМ (2014) [MP3]
  • Роман Масленников | СуперКонсалтинг-2: PR и маркетинг в сфере В2В-услуг (2013) [FB2] скачать через торрент бесплатно
  • Роман Глушков | Штурм (2014) [FB2] скачать через торрент бесплатно
  • Роман Холодов | Эффективный ремонт сотовых телефонов своими руками (2013) [DVDRip] скачать через торрент бесплатно

  • Посетители, находящиеся в группе Гости, не могут оставлять комментарии в данной новости.
    Для авторских прав
    Вход на сайт
    Навигация
    Популярное

    Энди Уорнер | Краткие истории обычных вещей (2019) [PDF]

    (скачиваний: 21)
    Касия Везовски, Патрик Везовски | Я понимаю тебя без слов. Как читать людей по жестам и мимике (2020) [PDF]

    (скачиваний: 15)
    Джейсон Уилкс | Математика в огне. Нескучный неучебник (2020) [PDF]

    (скачиваний: 14)
    Воган Лин | Blender 2.79 Средний уровень: Краб Бот / Blender 2.79 Intermediate: Crab Bot (2017) PCRec [H.264 / 1080p-LQ] [EN]

    (скачиваний: 12)
    Воган Лин | Blender 2.79 Средний уровень: Sci Fi коридор / Blender 2.79 Intermediate: Sci Fi Corridor (2018) PCRec [H.264 / 1080p-LQ] [EN]

    (скачиваний: 11)
    Воган Лин | Blender 2.8 Продвинутый: Грузовой космический корабль / Blender 2.8 Advanced: Cargo Spaceship (2019) PCRec [H.264 / 1080p-LQ] [EN]

    (скачиваний: 10)
    Эми Морис | 13 привычек сильных духом людей (2019) [EPUB, PDF]

    (скачиваний: 9)
    И.В. Блохина и др. | Большая книга для каждого образованного человека. 10000 фактов, дат, событий (2018) [PDF]

    (скачиваний: 8)
    Андреас Штипплер, Норберт Регитниг-Тиллиан | Мышцы. Как у вас дела (2020) [FB2]

    (скачиваний: 7)
    Олег Дивов и др. | Цифрономикон [сборник] (2014) [FB2] скачать через торрент бесплатно

    (скачиваний: 6)