Подписывайся на наш канал в Telegram https://t.me/torrentok и получи доступ к торрентам без ограничений!

Олег Троицкий | Photoshop для архитектора (2020) PCRec торрент скачать бесплатно

Олег Троицкий | Photoshop для архитектора (2020) PCRecАвтор: Олег Троицкий
Жанр: Adobe Photoshop, дизайн, визуализация

Описание

Лучший практический курс для архитекторов, дизайнеров интерьера и визуализаторов, который позволит с нуля овладеть не только программой, но и приемами подачи проектов
На нашем курсе ты не научишься убирать эффект красных глаз, менять цвет у волос и одежды, делать лица с идеальной кожей для обложек глянцевых журналов.
Наша цель: подготовить тебя к работе с архитектурной графикой, научить делать качественные визуализации проектов, которые можно с гордостью показать клиенту любого уровня – от частного заказчика до крупной компании, и которые откроют новые перспективы развития.
Продолжительность: 09: 38: 24
Качество видео: PCRec
Видео: AVC/H.264, 1280x720, ~223 Kbps
Аудио: AAC, 2 ch, 126 Kbps
Общее
Полное имя : Олег Троицкий Photoshop для архитектора (2020)Модуль 1 - Знакомство с Photoshop1. Введение в архитектурную графику2018 22_12_19.mp4
Формат : MPEG-4
Профиль формата : Base Media/Version 2
Идентификатор кодека : mp42 (isom/mp42)
Размер файла : 91, 4 Мбайт
Продолжительность : 36 м. 22 с.
Режим общего битрейта : Переменный
Общий поток : 351 Кбит/сек
Дата кодирования : UTC 2020-06-22 14: 16: 57
Дата пометки : UTC 2020-06-22 14: 16: 57
Видео
Идентификатор : 1
Формат : AVC
Формат/Информация : Advanced Video Codec
Профиль формата : [email protected]
Настройки формата : CABAC/3 Ref Frames
Параметр CABAC формата : Да
Параметр RefFrames формата : 3 кадра
Идентификатор кодека : avc1
Идентификатор кодека/Информация : Advanced Video Coding
Продолжительность : 36 м. 22 с.
Битрейт : 223 Кбит/сек
Ширина : 1 280 пикселей
Высота : 720 пикселей
Соотношение сторон : 16: 9
Режим частоты кадров : Постоянный
Частота кадров : 30, 000 кадров/сек
Стандарт вещания : NTSC
Цветовое пространство : YUV
Субдискретизация насыщенности : 4: 2: 0
Битовая глубина : 8 бит
Тип развёртки : Прогрессивная
Бит/(Пиксели*Кадры) : 0.008
Размер потока : 58, 0 Мбайт (63%)
Язык : English
Дата кодирования : UTC 2020-06-22 14: 16: 58
Дата пометки : UTC 2020-06-22 14: 16: 58
Цветовой диапазон : Limited
Codec configuration box : avcC
Аудио
Идентификатор : 2
Формат : AAC LC
Формат/Информация : Advanced Audio Codec Low Complexity
Идентификатор кодека : mp4a-40-2
Продолжительность : 36 м. 22 с.
Продолжительность оригинала : 36 м. 22 с.
Вид битрейта : Переменный
Битрейт : 126 Кбит/сек
Максимальный битрейт : 409 Кбит/сек
Каналы : 2 канала
Channel layout : L R
Частота : 44, 1 КГц
Частота кадров : 43, 066 кадра/сек (1024 SPF)
Метод сжатия : С потерями
Размер потока : 32, 7 Мбайт (36%)
Размер потока оригинала : 32, 7 Мбайт (36%)
Язык : English
Дата кодирования : UTC 2020-06-22 14: 16: 58
Дата пометки : UTC 2020-06-22 14: 16: 58
Скриншоты:


Время раздачи: 24/7 (до появления первых 3-5 скачавших)

Другие торренты по теме:

  • Макс Глебов | Звезд Не Хватит На Всех (Новая Версия) (Троицкий Олег) (2019) [MP3]

  • Посетители, находящиеся в группе Гости, не могут оставлять комментарии в данной новости.
    Для авторских прав
    Вход на сайт
    Навигация
    Популярное

    Энди Уорнер | Краткие истории обычных вещей (2019) [PDF]

    (скачиваний: 20)
    Касия Везовски, Патрик Везовски | Я понимаю тебя без слов. Как читать людей по жестам и мимике (2020) [PDF]

    (скачиваний: 14)
    Сара Андерсен | Дрессировщик котиков. Руководство по выживанию в безумном современном мире (2018) [PDF]

    (скачиваний: 11)
    Воган Лин | Blender 2.79 Средний уровень: Краб Бот / Blender 2.79 Intermediate: Crab Bot (2017) PCRec [H.264 / 1080p-LQ] [EN]

    (скачиваний: 10)
    Эми Морис | 13 привычек сильных духом людей (2019) [EPUB, PDF]

    (скачиваний: 8)
    Воган Лин | Blender 2.79 Средний уровень: Sci Fi коридор / Blender 2.79 Intermediate: Sci Fi Corridor (2018) PCRec [H.264 / 1080p-LQ] [EN]

    (скачиваний: 7)
    Воган Лин | Blender 2.8 Продвинутый: Грузовой космический корабль / Blender 2.8 Advanced: Cargo Spaceship (2019) PCRec [H.264 / 1080p-LQ] [EN]

    (скачиваний: 6)
    И.В. Блохина и др. | Большая книга для каждого образованного человека. 10000 фактов, дат, событий (2018) [PDF]

    (скачиваний: 5)
    Олег Дивов | Серия: Новый Дивов [10 книг. Обновляемая] (2012-2016) [FB2]

    (скачиваний: 4)
    Журнал | Auto Express UK №26 (июнь 2019) [PDF] [En]

    (скачиваний: 3)