Подписывайся на наш канал в Telegram https://t.me/torrentok и получи доступ к торрентам без ограничений!

[Udemy] Nick Walter | Создание API-интерфейсов на Python - Django REST Framework / Creating Python APIs Like a BOSS - The Django REST Framework (2020) PCRec [En / En, Ru Sub] торрент скачать бесплатно

[Udemy] Nick Walter | Создание API-интерфейсов на Python - Django REST Framework / Creating Python APIs Like a BOSS - The Django REST Framework (2020) PCRec [En / En, Ru Sub]Автор: Nick Walter
Производство: Udemy
Жанр: Программирование

Описание

Вы когда-нибудь хотели создать API для Django, но не знали, с чего начать? Надоели неполные видео на YouTube и плохо написанные учебные пособия? У вас есть проект Django, к которому вы хотите добавить API? Не слишком ли сложна для понимания документация по Django REST Framework?
В моем курсе я расскажу вам о Django REST Framework от начала до конца! Я программист-самоучка, поэтому я знаю, каково это начинать с нуля.
В этом курсе мы будем:
1. Узнайте, что такое API REST и как их использовать
2. Создайте клон Reddit с вызовами API, чтобы создавать и удалять сообщения, голосовать за сообщения и многое другое!
3. Добавить функциональность API в существующий проект Django
Продолжительность: 02: 59: 07
Качество видео: PCRec
Язык озвучки: Английский
Видео: AVC/H.264, 1280x720, ~607 Kbps
Аудио: AAC, 2 ch, 128 Kbps
Общее
Полное имя : Udemy Ник Уолтер Создание API-интерфейсов на Python - Django REST Framework (2020)2. API Basics - Making a Reddit Clone2. Zappit Models.mp4
Формат : MPEG-4
Профиль формата : Base Media
Идентификатор кодека : isom (isom/iso2/avc1/mp41)
Размер файла : 56, 9 Мбайт
Продолжительность : 10 м. 42 с.
Общий поток : 743 Кбит/сек
Программа кодирования : Lavf58.12.100
Видео
Идентификатор : 1
Формат : AVC
Формат/Информация : Advanced Video Codec
Профиль формата : [email protected]
Настройки формата : CABAC/4 Ref Frames
Параметр CABAC формата : Да
Параметр RefFrames формата : 4 кадра
Параметр GOP формата : M=4, N=60
Идентификатор кодека : avc1
Идентификатор кодека/Информация : Advanced Video Coding
Продолжительность : 10 м. 42 с.
Битрейт : 607 Кбит/сек
Номинальный битрейт : 3 000 Кбит/сек
Ширина : 1 280 пикселей
Высота : 720 пикселей
Соотношение сторон : 16: 9
Режим частоты кадров : Постоянный
Частота кадров : 30, 000 кадров/сек
Цветовое пространство : YUV
Субдискретизация насыщенности : 4: 2: 0
Битовая глубина : 8 бит
Тип развёртки : Прогрессивная
Бит/(Пиксели*Кадры) : 0.022
Размер потока : 46, 5 Мбайт (82%)
Библиотека кодирования : x264 core 148
Codec configuration box : avcC
Аудио
Идентификатор : 2
Формат : AAC LC
Формат/Информация : Advanced Audio Codec Low Complexity
Идентификатор кодека : mp4a-40-2
Продолжительность : 10 м. 42 с.
Вид битрейта : Постоянный
Битрейт : 128 Кбит/сек
Каналы : 2 канала
Channel layout : L R
Частота : 44, 1 КГц
Частота кадров : 43, 066 кадра/сек (1024 SPF)
Метод сжатия : С потерями
Размер потока : 9, 80 Мбайт (17%)
Default : Да
Alternate group : 1
Скриншоты:


Время раздачи: 24/7 (до появления первых 3-5 скачавших)

Другие торренты по теме:

  • [Udemy] Центр digital-профессий ITtensive | Регулярные выражения в Python (2020) PCRec
  • Udemy | Изучение взлома Wi-fi паролей / ключей (WEP / WPA / WPA2) / Learn Cracking Wi-fi Passwords / Keys (WEP / WPA / WPA2) (2015) PCRec [EN]
  • Udemy | Certified Metasploit Framework Professional (2014) PCRec [EN] скачать через торрент бесплатно
  • Udemy.com | Создание сайта с нуля с помощью HTML и CSS / Build Websites from Scratch with HTML & CSS (2014) PCRec [H.264 / 720p] [EN] скачать через торрент бесплатно
  • Udemy.com | Станьте web-разработчиком с нуля / Become a Web Developer from Scratch (2015) PCRec [H.264 / 720p] [EN] скачать через торрент бесплатно
  • Udemy.com | Infinite Skills | Написание безопасного PHP-кода. Уроки о защите. | Writing Secure PHP Code - PHP Security Tutorial (2014) PCRec [H.264 / 720p] [EN] скачать через торрент бесплатно
  • Udemy.com | Hacking School & IT Security Academy | Практический взлом сайтов | Website Hacking in Practice (2014) PCRec [H.264 / 720p] [EN] скачать через торрент бесплатно
  • Udemy | Kickstart ur Network Security Career: Checkpoint CCSA Course (2015) PCRec [H.264 / 720p] [EN] скачать через торрент бесплатно

  • Посетители, находящиеся в группе Гости, не могут оставлять комментарии в данной новости.
    Для авторских прав
    Вход на сайт
    Навигация
    Популярное

    Энди Уорнер | Краткие истории обычных вещей (2019) [PDF]

    (скачиваний: 21)
    Касия Везовски, Патрик Везовски | Я понимаю тебя без слов. Как читать людей по жестам и мимике (2020) [PDF]

    (скачиваний: 16)
    Джейсон Уилкс | Математика в огне. Нескучный неучебник (2020) [PDF]

    (скачиваний: 14)
    Воган Лин | Blender 2.79 Средний уровень: Краб Бот / Blender 2.79 Intermediate: Crab Bot (2017) PCRec [H.264 / 1080p-LQ] [EN]

    (скачиваний: 12)
    Воган Лин | Blender 2.79 Средний уровень: Sci Fi коридор / Blender 2.79 Intermediate: Sci Fi Corridor (2018) PCRec [H.264 / 1080p-LQ] [EN]

    (скачиваний: 11)
    Воган Лин | Blender 2.8 Продвинутый: Грузовой космический корабль / Blender 2.8 Advanced: Cargo Spaceship (2019) PCRec [H.264 / 1080p-LQ] [EN]

    (скачиваний: 10)
    Андреас Штипплер, Норберт Регитниг-Тиллиан | Мышцы. Как у вас дела (2020) [FB2]

    (скачиваний: 9)
    Михаил Савич | «Первый» [11 книг] (2019) [FB2]

    (скачиваний: 8)
    Ренсом Риггз | Цикл «Мисс Перегрин» [6 книг] (2012-2020) [FB2] [Обновляемая]

    (скачиваний: 7)
    Эрик Берн | Игры, в которые играют люди. Люди, которые играют в игры (сборник) (2017) [FB2]

    (скачиваний: 6)