Подписывайся на наш канал в Telegram https://t.me/torrentok и получи доступ к торрентам без ограничений!

[Udemy] Группа преподавателей Центра "Специалист" | Создание графических интерфейсов (GUI) в Python (2018) PCRec торрент скачать бесплатно

[Udemy] Группа преподавателей Центра Специалист | Создание графических интерфейсов (GUI) в Python (2018) PCRecАвтор: Группа преподавателей Центра Специалист
Производство: Udemy
Жанр: Программирование

Описание

Это курс для тех, кто хочет добавить к своему приложению графический интерфейс, он посвящен первым шагам создания графического интерфейса пользователя: созданию главного окна, окон диалогов, использованию вкладок и разметок. В ходе курса разрабатывается небольшое приложение, которое вводит числовые данные и выполняет их простую визуализацию.
Продолжительность: 01: 12: 47
Качество видео: PCRec
Видео: AVC/H.264, 1280x720, ~118 Kbps
Аудио: AAC, 2 ch, 126 Kbps
Общее
Полное имя : UdemyГруппа преподавателей Центра Специалист Создание графических интерфейсов (GUI) в Python1. Как создать базовое GUI-приложение.mp4
Формат : MPEG-4
Профиль формата : Base Media/Version 2
Идентификатор кодека : mp42 (isom/mp42)
Размер файла : 15, 8 Мбайт
Продолжительность : 9 м. 0 с.
Режим общего битрейта : Переменный
Общий поток : 246 Кбит/сек
Дата кодирования : UTC 2020-08-10 11: 27: 48
Дата пометки : UTC 2020-08-10 11: 27: 48
Видео
Идентификатор : 1
Формат : AVC
Формат/Информация : Advanced Video Codec
Профиль формата : [email protected]
Настройки формата : CABAC/4 Ref Frames
Параметр CABAC формата : Да
Параметр RefFrames формата : 4 кадра
Идентификатор кодека : avc1
Идентификатор кодека/Информация : Advanced Video Coding
Продолжительность : 9 м. 0 с.
Битрейт : 118 Кбит/сек
Ширина : 960 пикселей
Высота : 720 пикселей
Соотношение сторон : 4: 3
Режим частоты кадров : Постоянный
Частота кадров : 30, 000 кадров/сек
Стандарт вещания : NTSC
Цветовое пространство : YUV
Субдискретизация насыщенности : 4: 2: 0
Битовая глубина : 8 бит
Тип развёртки : Прогрессивная
Бит/(Пиксели*Кадры) : 0.006
Размер потока : 7, 57 Мбайт (48%)
Язык : English
Дата кодирования : UTC 2020-08-10 11: 27: 49
Дата пометки : UTC 2020-08-10 11: 27: 49
Цветовой диапазон : Limited
Основные цвета : BT.709
Характеристики трансфера : BT.709
Коэффициенты матрицы : BT.601
Codec configuration box : avcC
Аудио
Идентификатор : 2
Формат : AAC LC
Формат/Информация : Advanced Audio Codec Low Complexity
Идентификатор кодека : mp4a-40-2
Продолжительность : 9 м. 0 с.
Вид битрейта : Переменный
Битрейт : 126 Кбит/сек
Максимальный битрейт : 200 Кбит/сек
Каналы : 2 канала
Channel layout : L R
Частота : 44, 1 КГц
Частота кадров : 43, 066 кадра/сек (1024 SPF)
Метод сжатия : С потерями
Размер потока : 8, 09 Мбайт (51%)
Язык : English
Дата кодирования : UTC 2020-08-10 11: 27: 49
Дата пометки : UTC 2020-08-10 11: 27: 49

Другие торренты по теме:

  • [Udemy] Центр digital-профессий ITtensive | Регулярные выражения в Python (2020) PCRec
  • Udemy | Изучение взлома Wi-fi паролей / ключей (WEP / WPA / WPA2) / Learn Cracking Wi-fi Passwords / Keys (WEP / WPA / WPA2) (2015) PCRec [EN]
  • Udemy | Certified Metasploit Framework Professional (2014) PCRec [EN] скачать через торрент бесплатно
  • Udemy.com | Создание сайта с нуля с помощью HTML и CSS / Build Websites from Scratch with HTML & CSS (2014) PCRec [H.264 / 720p] [EN] скачать через торрент бесплатно
  • Udemy.com | Станьте web-разработчиком с нуля / Become a Web Developer from Scratch (2015) PCRec [H.264 / 720p] [EN] скачать через торрент бесплатно
  • Udemy.com | Infinite Skills | Написание безопасного PHP-кода. Уроки о защите. | Writing Secure PHP Code - PHP Security Tutorial (2014) PCRec [H.264 / 720p] [EN] скачать через торрент бесплатно
  • Udemy.com | Hacking School & IT Security Academy | Практический взлом сайтов | Website Hacking in Practice (2014) PCRec [H.264 / 720p] [EN] скачать через торрент бесплатно
  • Udemy | Kickstart ur Network Security Career: Checkpoint CCSA Course (2015) PCRec [H.264 / 720p] [EN] скачать через торрент бесплатно

  • Посетители, находящиеся в группе Гости, не могут оставлять комментарии в данной новости.
    Для авторских прав
    Вход на сайт
    Навигация
    Популярное

    Энди Уорнер | Краткие истории обычных вещей (2019) [PDF]

    (скачиваний: 20)
    Касия Везовски, Патрик Везовски | Я понимаю тебя без слов. Как читать людей по жестам и мимике (2020) [PDF]

    (скачиваний: 14)
    Воган Лин | Blender 2.79 Средний уровень: Краб Бот / Blender 2.79 Intermediate: Crab Bot (2017) PCRec [H.264 / 1080p-LQ] [EN]

    (скачиваний: 12)
    Воган Лин | Blender 2.79 Средний уровень: Sci Fi коридор / Blender 2.79 Intermediate: Sci Fi Corridor (2018) PCRec [H.264 / 1080p-LQ] [EN]

    (скачиваний: 11)
    Воган Лин | Blender 2.8 Продвинутый: Грузовой космический корабль / Blender 2.8 Advanced: Cargo Spaceship (2019) PCRec [H.264 / 1080p-LQ] [EN]

    (скачиваний: 10)
    Эми Морис | 13 привычек сильных духом людей (2019) [EPUB, PDF]

    (скачиваний: 8)
    С.П. Сапцов | Английский попроще. Фразовые глаголы (2020) [PDF]

    (скачиваний: 7)
    Олег Дивов и др. | Цифрономикон [сборник] (2014) [FB2] скачать через торрент бесплатно

    (скачиваний: 6)
    Михаил Савич | «Первый» [11 книг] (2019) [FB2]

    (скачиваний: 5)
    Ренсом Риггз | Собрание произведений [12 книг] (2011 - 2020) [FB2, EPUB]

    (скачиваний: 4)