Подписывайся на наш канал в Telegram https://t.me/torrentok и получи доступ к торрентам без ограничений!

[JenyTalkRu] Евгения Фатеева | Онлайн-курс Ретушь + (2020) PCRec торрент скачать бесплатно

[JenyTalkRu] Евгения Фатеева | Онлайн-курс Ретушь + (2020) PCRecАвтор: Евгения Фатеева
Производство: JenyTalkRu
Жанр: Фотообработка

Описание

Ваши результаты после курса:
- освоите разные техники обработки фото и порядок действий при ретуши;
- разберетесь в инструментах Adobe Photoshop для ретуши фотографий и поймете, как их использовать в зависимости от своих целей;
- узнаете теорию из смежных областей - рисование, макияж, анатомия;
- получите базу по работе с цветом в фотографии;
- приобретете знания и практический опыт, чтобы начать профессиональный путь сфере ретуши или продолжить на более высоком уровне.
- во время обучения вы будете выполнять ретушь в качестве домашних работ, которую потом добавите в свое портфолио.
Продолжительность: 22: 27: 58
Качество видео: PCRec
Видео: AVC/H.264, 1920x1080, ~710 Kbps
Аудио: AAC, 2 ch, 128 Kbps
Общее
Полное имя : Евгения Фатеева Онлайн-курс Ретушь + (2020) 02 Основы DB 01 Основы конвертации, чистка.mp4
Формат : MPEG-4
Профиль формата : Base Media
Идентификатор кодека : isom (isom/iso2/avc1/mp41)
Размер файла : 264 Мбайт
Продолжительность : 43 м. 34 с.
Общий поток : 846 Кбит/сек
Программа кодирования : Lavf58.12.100
Видео
Идентификатор : 1
Формат : AVC
Формат/Информация : Advanced Video Codec
Профиль формата : [email protected]
Настройки формата : CABAC/3 Ref Frames
Параметр CABAC формата : Да
Параметр RefFrames формата : 3 кадра
Параметр GOP формата : M=2, N=12
Идентификатор кодека : avc3
Идентификатор кодека/Информация : Advanced Video Coding
Продолжительность : 43 м. 33 с.
Битрейт : 710 Кбит/сек
Ширина : 1 920 пикселей
Высота : 1 080 пикселей
Соотношение сторон : 16: 9
Режим частоты кадров : Постоянный
Частота кадров : 30, 000 кадров/сек
Цветовое пространство : YUV
Субдискретизация насыщенности : 4: 2: 0
Битовая глубина : 8 бит
Тип развёртки : Прогрессивная
Бит/(Пиксели*Кадры) : 0.011
Размер потока : 221 Мбайт (84%)
Цветовой диапазон : Limited
Основные цвета : BT.709
Характеристики трансфера : BT.709
Коэффициенты матрицы : BT.709
Codec configuration box : avcC
Аудио
Идентификатор : 2
Формат : AAC LC
Формат/Информация : Advanced Audio Codec Low Complexity
Идентификатор кодека : mp4a-40-2
Продолжительность : 43 м. 34 с.
Вид битрейта : Постоянный
Битрейт : 128 Кбит/сек
Каналы : 2 канала
Channel layout : L R
Частота : 44, 1 КГц
Частота кадров : 43, 066 кадра/сек (1024 SPF)
Метод сжатия : С потерями
Размер потока : 39, 9 Мбайт (15%)
Default : Да
Alternate group : 1
Скриншоты:


Время раздачи: 24/7 (до появления первых 3-5 скачавших)

Другие торренты по теме:


Посетители, находящиеся в группе Гости, не могут оставлять комментарии в данной новости.
Для авторских прав
Вход на сайт
Навигация
Популярное

Энди Уорнер | Краткие истории обычных вещей (2019) [PDF]

(скачиваний: 22)
Касия Везовски, Патрик Везовски | Я понимаю тебя без слов. Как читать людей по жестам и мимике (2020) [PDF]

(скачиваний: 18)
Джейсон Уилкс | Математика в огне. Нескучный неучебник (2020) [PDF]

(скачиваний: 14)
Андреас Штипплер, Норберт Регитниг-Тиллиан | Мышцы. Как у вас дела (2020) [FB2]

(скачиваний: 12)
Воган Лин | Blender 2.79 Средний уровень: Sci Fi коридор / Blender 2.79 Intermediate: Sci Fi Corridor (2018) PCRec [H.264 / 1080p-LQ] [EN]

(скачиваний: 11)
Воган Лин | Blender 2.8 Продвинутый: Грузовой космический корабль / Blender 2.8 Advanced: Cargo Spaceship (2019) PCRec [H.264 / 1080p-LQ] [EN]

(скачиваний: 10)
Елена Перелыгина | НЛП: манипуляция или ключ к успеху (2020) [EPUB]

(скачиваний: 9)
Наоми Вульф | Вагина. Новая история женской сексуальности (2018) [FB2]

(скачиваний: 8)
Эрик Берн | Игры, в которые играют люди. Люди, которые играют в игры (сборник) (2017) [FB2]

(скачиваний: 7)
Марк Уолинн | Это началось не с тебя (2020) [FB2]

(скачиваний: 6)