Подписывайся на наш канал в Telegram https://t.me/torrentok и получи доступ к торрентам без ограничений!

[Фонд развития онлайн-образования] Павел Попов | Профессия - QA Automation Engineer (Разработчик тестирования) (2019) PCRec торрент скачать бесплатно

[Фонд развития онлайн-образования] Павел Попов | Профессия - QA Automation Engineer (Разработчик тестирования) (2019) PCRecАвтор: Павел Попов
Производство: Фонд развития онлайн-образования
Жанр: Тестирование

Описание

Курс - Разработчик в тестировании. Освойте профессию - QA Automation Engineer. Наша комплексная программа обучения позволит вам перейти на новый уровень, погрузиться в автоматизацию тестирования и разобраться во всех нюансах процесса.
Вы узнаете:
- что такое автотесты
- какие автотесты нужно создавать
- критерии создания правильных автотестов
На курсе будут приведены примеры:
- интеграционных тестов
- REST API тестов
- UI тестов
Вы сможете:
- делать больший объем тестирования за меньшее время
- брать больше интересных функций на работе
- грамотно выстроить процесс автоматизации на проекте
Познакомитесь с технологиями/инструментами:
- Java, Selenium, WebDriver, Docker
- REST API, Rest-Assured
- Selenide, Selenoid, Allure, Appium
Продолжительность: 07: 04: 53
Качество видео: PCRec
Видео: AVC/H.264, 1920x1080, ~1058 Kbps
Аудио: AAC, 2 ch, 125 Kbps
Общее
Полное имя : ФРОО Профессия - QA Automation Engineer ( Разработчик тестирования ) (2019)1. Знакомство с атоматизациейЗнакомство с автоматизацией – Step 1 – Stepik.mp4
Формат : MPEG-4
Профиль формата : Base Media
Идентификатор кодека : isom (isom/iso2/avc1/mp41)
Размер файла : 44, 4 Мбайт
Продолжительность : 5 м. 12 с.
Режим общего битрейта : Переменный
Общий поток : 1 189 Кбит/сек
Программа кодирования : Lavf58.20.100
Видео
Идентификатор : 1
Формат : AVC
Формат/Информация : Advanced Video Codec
Профиль формата : [email protected]
Настройки формата : CABAC/5 Ref Frames
Параметр CABAC формата : Да
Параметр RefFrames формата : 5 кадров
Идентификатор кодека : avc1
Идентификатор кодека/Информация : Advanced Video Coding
Продолжительность : 5 м. 12 с.
Битрейт : 1 058 Кбит/сек
Ширина : 1 920 пикселей
Высота : 1 080 пикселей
Соотношение сторон : 16: 9
Режим частоты кадров : Постоянный
Частота кадров : 25, 000 кадров/сек
Цветовое пространство : YUV
Субдискретизация насыщенности : 4: 2: 0
Битовая глубина : 8 бит
Тип развёртки : Прогрессивная
Бит/(Пиксели*Кадры) : 0.020
Размер потока : 39, 5 Мбайт (89%)
Библиотека кодирования : x264 core 157 r2969 d4099dd
Codec configuration box : avcC
Аудио
Идентификатор : 2
Формат : AAC LC
Формат/Информация : Advanced Audio Codec Low Complexity
Идентификатор кодека : mp4a-40-2
Продолжительность : 5 м. 12 с.
Вид битрейта : Переменный
Битрейт : 125 Кбит/сек
Максимальный битрейт : 128 Кбит/сек
Каналы : 2 канала
Channel layout : L R
Частота : 48, 0 КГц
Частота кадров : 46, 875 кадров/сек (1024 SPF)
Метод сжатия : С потерями
Размер потока : 4, 66 Мбайт (10%)
Default : Да
Alternate group : 1

Другие торренты по теме:

  • Фонд «Математические этюды» | Архив книгоиздательства «Mathesis» (2014) [ISO] скачать через торрент бесплатно
  • Артур Конан Дойл и др. | Сборник фантастики. Золотой фонд (2015) [FB2, EPUB] скачать через торрент бесплатно
  • Газета | Золотой фонд газеты Скатерть-самобранка №1 (2016) [PDF]
  • Газета | Золотой фонд газеты Скатерть-самобранка №2 (2016) [PDF]
  • VA - Русский Музыкальный Фонд (2016) [MP3|320 кб / с] <поп, шансон, рок>
  • Книжная серия | Золотой фонд науки [7 книг] (2002-2016) [FB2, PDF, EPUB]
  • Газета | Золотой фонд газеты Скатерть-самобранка №3 (2016) [PDF]
  • Газета | Золотой фонд газеты Скатерть-самобранка №4 (2016) [PDF]

  • Посетители, находящиеся в группе Гости, не могут оставлять комментарии в данной новости.
    Для авторских прав
    Вход на сайт
    Навигация
    Популярное

    Энди Уорнер | Краткие истории обычных вещей (2019) [PDF]

    (скачиваний: 22)
    Касия Везовски, Патрик Везовски | Я понимаю тебя без слов. Как читать людей по жестам и мимике (2020) [PDF]

    (скачиваний: 18)
    Джейсон Уилкс | Математика в огне. Нескучный неучебник (2020) [PDF]

    (скачиваний: 14)
    Андреас Штипплер, Норберт Регитниг-Тиллиан | Мышцы. Как у вас дела (2020) [FB2]

    (скачиваний: 12)
    Воган Лин | Blender 2.79 Средний уровень: Sci Fi коридор / Blender 2.79 Intermediate: Sci Fi Corridor (2018) PCRec [H.264 / 1080p-LQ] [EN]

    (скачиваний: 11)
    Воган Лин | Blender 2.8 Продвинутый: Грузовой космический корабль / Blender 2.8 Advanced: Cargo Spaceship (2019) PCRec [H.264 / 1080p-LQ] [EN]

    (скачиваний: 10)
    Елена Перелыгина | НЛП: манипуляция или ключ к успеху (2020) [EPUB]

    (скачиваний: 9)
    Наоми Вульф | Вагина. Новая история женской сексуальности (2018) [FB2]

    (скачиваний: 8)
    Эрик Берн | Игры, в которые играют люди. Люди, которые играют в игры (сборник) (2017) [FB2]

    (скачиваний: 7)
    Марк Уолинн | Это началось не с тебя (2020) [FB2]

    (скачиваний: 6)