Подписывайся на наш канал в Telegram https://t.me/torrentok и получи доступ к торрентам без ограничений!

Виктор Рыжов | Power BI Аналитика и визуализация данных для бизнеса (2019) PCRec торрент скачать бесплатно

Виктор Рыжов | Power BI Аналитика и визуализация данных для бизнеса (2019) PCRecАвтор: Виктор Рыжов
Производство: LABA
Жанр: Power BI

Описание

Мы разработали курс для аналитиков, финансистов и руководителей, которые хотят усовершенствовать систему отчетности в компании. Вы научитесь работать с инструментами аналитики, манипулировать данными и превращать сложные отчеты в интуитивно понятные дашборды.
О курсе: Что и Сколько?
Консолидация
Мы объясним, как импортировать данные из внешних источников в один клик. Вы изучите PowerQuery, научитесь подключаться к онлайн-сервисам и выгружать данные из Excel, CSV и SQL.
Моделирование
Мы научим строить модели данных. Вы будете работать с числовыми и текстовыми DAX-формулами, выстраивать связи между таблицами и объединять данные в агрегаты для план-факторного анализа.
Визуализация
Мы объясним, как преобразовывать данные в понятные для руководства визуальные отчеты. Вы изучите основные типы графиков в Power BI, научитесь кастомизировать визуализации и построите красивый интерактивный дашборд.
Продолжительность: 16: 34: 30
Качество видео: PCRec
Видео: AVC/H.264, 1920x1080, ~1101 Kbps
Аудио: AAC, 2 ch, 182 Kbps
Общее
Полное имя : Laba Виктор Рыжов - Power BI Аналитика и визуализация данных для бизнеса (2019)1 Бизнес-аналитика и Power BIЗанятие 01.mp4
Формат : MPEG-4
Профиль формата : Base Media
Идентификатор кодека : isom (isom/iso2/avc1/mp41)
Размер файла : 887 Мбайт
Продолжительность : 1 ч. 36 м.
Режим общего битрейта : Переменный
Общий поток : 1 285 Кбит/сек
Дата кодирования : UTC 2019-04-19 16: 43: 03
Дата пометки : UTC 2019-04-19 16: 43: 03
Программа кодирования : Lavf57.71.100
Видео
Идентификатор : 1
Формат : AVC
Формат/Информация : Advanced Video Codec
Профиль формата : [email protected]
Настройки формата : CABAC/1 Ref Frames
Параметр CABAC формата : Да
Параметр RefFrames формата : 1 кадр
Параметр GOP формата : M=1, N=25
Идентификатор кодека : avc1
Идентификатор кодека/Информация : Advanced Video Coding
Продолжительность : 1 ч. 36 м.
Duration_LastFrame : -39 мс.
Вид битрейта : Постоянный
Битрейт : 1 101 Кбит/сек
Ширина : 1 920 пикселей
Высота : 1 080 пикселей
Соотношение сторон : 16: 9
Режим частоты кадров : Постоянный
Частота кадров : 15, 000 кадров/сек
Цветовое пространство : YUV
Субдискретизация насыщенности : 4: 2: 0
Битовая глубина : 8 бит
Тип развёртки : Прогрессивная
Бит/(Пиксели*Кадры) : 0.035
Размер потока : 759 Мбайт (86%)
Язык : English
Дата кодирования : UTC 2019-04-19 16: 43: 03
Дата пометки : UTC 2019-04-19 16: 43: 03
Codec configuration box : avcC
Аудио
Идентификатор : 2
Формат : AAC LC
Формат/Информация : Advanced Audio Codec Low Complexity
Идентификатор кодека : mp4a-40-2
Продолжительность : 1 ч. 36 м.
Вид битрейта : Переменный
Битрейт : 182 Кбит/сек
Максимальный битрейт : 192 Кбит/сек
Каналы : 2 канала
Channel layout : L R
Частота : 44, 1 КГц
Частота кадров : 43, 066 кадра/сек (1024 SPF)
Метод сжатия : С потерями
Размер потока : 126 Мбайт (14%)
Язык : English
Default : Да
Alternate group : 1
Дата кодирования : UTC 2019-04-19 16: 43: 03
Дата пометки : UTC 2019-04-19 16: 43: 03
Скриншоты:


Время раздачи: с 10: 00 до 02: 00 (до появления первых 3-5 скачавших)

Другие торренты по теме:

  • Виктор Чистяков - Музыкальные пародии (1960) [Wave|Lossless|image] <Музыкальные пародии>
  • Виктор Кожемяко | Виктор Розов. Свидетель века (2013) [FB2] скачать через торрент бесплатно
  • Виктор Марковский, Виктор Мильяченко | Афганистан. Война разведчиков (2001) [FB2]
  • Виктор Кожемяко | Виктор Розов. Свидетель века (2016) [MP3]
  • Виктор / Viktor (2014) TS
  • Виктор (Viktor) (2014) [MP4 | 720x320] <TS H.264>
  • Виктор / Viktor (2014) WEB-DLRip скачать через торрент бесплатно
  • Виктор Глумов | Сталкеры поневоле [3 книги] (2014) [FB2] скачать через торрент бесплатно

  • Посетители, находящиеся в группе Гости, не могут оставлять комментарии в данной новости.
    Для авторских прав
    Вход на сайт
    Навигация
    Популярное

    Энди Уорнер | Краткие истории обычных вещей (2019) [PDF]

    (скачиваний: 21)
    Касия Везовски, Патрик Везовски | Я понимаю тебя без слов. Как читать людей по жестам и мимике (2020) [PDF]

    (скачиваний: 16)
    Джейсон Уилкс | Математика в огне. Нескучный неучебник (2020) [PDF]

    (скачиваний: 14)
    Воган Лин | Blender 2.79 Средний уровень: Краб Бот / Blender 2.79 Intermediate: Crab Bot (2017) PCRec [H.264 / 1080p-LQ] [EN]

    (скачиваний: 12)
    Воган Лин | Blender 2.79 Средний уровень: Sci Fi коридор / Blender 2.79 Intermediate: Sci Fi Corridor (2018) PCRec [H.264 / 1080p-LQ] [EN]

    (скачиваний: 11)
    Воган Лин | Blender 2.8 Продвинутый: Грузовой космический корабль / Blender 2.8 Advanced: Cargo Spaceship (2019) PCRec [H.264 / 1080p-LQ] [EN]

    (скачиваний: 10)
    Андреас Штипплер, Норберт Регитниг-Тиллиан | Мышцы. Как у вас дела (2020) [FB2]

    (скачиваний: 9)
    Михаил Савич | «Первый» [11 книг] (2019) [FB2]

    (скачиваний: 8)
    Ренсом Риггз | Цикл «Мисс Перегрин» [6 книг] (2012-2020) [FB2] [Обновляемая]

    (скачиваний: 7)
    Вадим Панов | Зандр (2016) [FB2]

    (скачиваний: 6)