Подписывайся на наш канал в Telegram https://t.me/torrentok и получи доступ к торрентам без ограничений!

[Udemy] Дмитрий ПП | Настройка безопасности сетевых устройств CISCO (2020) PCRec торрент скачать бесплатно

[Udemy] Дмитрий ПП | Настройка безопасности сетевых устройств CISCO (2020) PCRecАвтор: Дмитрий ПП
Производство: Udemy
Жанр: Администрирование

Описание

В курсе будут рассмотрены типовые атаки на сетевое оборудование. На практике с использованием инструмента Kali Linux будет показан процесс осуществления атак на функциональные уровни сетевых устройств Cisco и их конфигурирование в целях защиты от них. Рассмотрена настройка списков контроля доступа, файерволов, функционал защиты коммутаторов и инфраструктурных сервисов.
В основе курса программа cisco secure. Особенность курса практическая направленность с необходимым минимумом теории.
Продолжительность: 10: 26: 56
Качество видео: PCRec
Видео: AVC/H.264, 1280x720, ~753 Kbps
Аудио: AAC, 2 ch, 128 Kbps
Общее
Полное имя : Udemy Настройка безопасности сетевых устройств CISCO (2020)2. Атака и методы защиты7. Основы применения списков контроля доступа.mp4
Формат : MPEG-4
Профиль формата : Base Media
Идентификатор кодека : isom (isom/iso2/avc1/mp41)
Размер файла : 426 Мбайт
Продолжительность : 1 ч. 6 м.
Общий поток : 890 Кбит/сек
Программа кодирования : Lavf58.12.100
Видео
Идентификатор : 1
Формат : AVC
Формат/Информация : Advanced Video Codec
Профиль формата : [email protected]
Настройки формата : CABAC/4 Ref Frames
Параметр CABAC формата : Да
Параметр RefFrames формата : 4 кадра
Параметр GOP формата : M=4, N=60
Идентификатор кодека : avc1
Идентификатор кодека/Информация : Advanced Video Coding
Продолжительность : 1 ч. 6 м.
Битрейт : 753 Кбит/сек
Номинальный битрейт : 3 000 Кбит/сек
Ширина : 1 280 пикселей
Высота : 720 пикселей
Соотношение сторон : 1, 956
Соотношение сторон в оригинале : 1, 955
Режим частоты кадров : Постоянный
Частота кадров : 30, 000 кадров/сек
Цветовое пространство : YUV
Субдискретизация насыщенности : 4: 2: 0
Битовая глубина : 8 бит
Тип развёртки : Прогрессивная
Бит/(Пиксели*Кадры) : 0.027
Размер потока : 361 Мбайт (85%)
Библиотека кодирования : x264 core 148
Codec configuration box : avcC
Аудио
Идентификатор : 2
Формат : AAC LC
Формат/Информация : Advanced Audio Codec Low Complexity
Идентификатор кодека : mp4a-40-2
Продолжительность : 1 ч. 6 м.
Вид битрейта : Постоянный
Битрейт : 128 Кбит/сек
Каналы : 2 канала
Channel layout : L R
Частота : 44, 1 КГц
Частота кадров : 43, 066 кадра/сек (1024 SPF)
Метод сжатия : С потерями
Размер потока : 61, 3 Мбайт (14%)
Default : Да
Alternate group : 1
Скриншоты:


Время раздачи: 24/7 (до появления первых 3-5 скачавших)

Другие торренты по теме:

  • [Udemy] Центр digital-профессий ITtensive | Регулярные выражения в Python (2020) PCRec
  • Udemy | Изучение взлома Wi-fi паролей / ключей (WEP / WPA / WPA2) / Learn Cracking Wi-fi Passwords / Keys (WEP / WPA / WPA2) (2015) PCRec [EN]
  • Udemy | Certified Metasploit Framework Professional (2014) PCRec [EN] скачать через торрент бесплатно
  • Udemy.com | Создание сайта с нуля с помощью HTML и CSS / Build Websites from Scratch with HTML & CSS (2014) PCRec [H.264 / 720p] [EN] скачать через торрент бесплатно
  • Udemy.com | Станьте web-разработчиком с нуля / Become a Web Developer from Scratch (2015) PCRec [H.264 / 720p] [EN] скачать через торрент бесплатно
  • Udemy.com | Infinite Skills | Написание безопасного PHP-кода. Уроки о защите. | Writing Secure PHP Code - PHP Security Tutorial (2014) PCRec [H.264 / 720p] [EN] скачать через торрент бесплатно
  • Udemy.com | Hacking School & IT Security Academy | Практический взлом сайтов | Website Hacking in Practice (2014) PCRec [H.264 / 720p] [EN] скачать через торрент бесплатно
  • Udemy | Kickstart ur Network Security Career: Checkpoint CCSA Course (2015) PCRec [H.264 / 720p] [EN] скачать через торрент бесплатно

  • Посетители, находящиеся в группе Гости, не могут оставлять комментарии в данной новости.
    Для авторских прав
    Вход на сайт
    Навигация
    Популярное

    Энди Уорнер | Краткие истории обычных вещей (2019) [PDF]

    (скачиваний: 21)
    Касия Везовски, Патрик Везовски | Я понимаю тебя без слов. Как читать людей по жестам и мимике (2020) [PDF]

    (скачиваний: 15)
    Джейсон Уилкс | Математика в огне. Нескучный неучебник (2020) [PDF]

    (скачиваний: 14)
    Воган Лин | Blender 2.79 Средний уровень: Краб Бот / Blender 2.79 Intermediate: Crab Bot (2017) PCRec [H.264 / 1080p-LQ] [EN]

    (скачиваний: 12)
    Воган Лин | Blender 2.79 Средний уровень: Sci Fi коридор / Blender 2.79 Intermediate: Sci Fi Corridor (2018) PCRec [H.264 / 1080p-LQ] [EN]

    (скачиваний: 11)
    Воган Лин | Blender 2.8 Продвинутый: Грузовой космический корабль / Blender 2.8 Advanced: Cargo Spaceship (2019) PCRec [H.264 / 1080p-LQ] [EN]

    (скачиваний: 10)
    Ханс Фаллада | Один в Берлине (Каждый умирает в одиночку) (2017) [PDF, FB2, EPUB, MOBI]

    (скачиваний: 9)
    И.В. Блохина и др. | Большая книга для каждого образованного человека. 10000 фактов, дат, событий (2018) [PDF]

    (скачиваний: 8)
    Михаил Савич | «Первый» [11 книг] (2019) [FB2]

    (скачиваний: 7)
    Олег Дивов и др. | Цифрономикон [сборник] (2014) [FB2] скачать через торрент бесплатно

    (скачиваний: 6)