Подписывайся на наш канал в Telegram https://t.me/torrentok и получи доступ к торрентам без ограничений!

[NeedForData] Максим Уваров | Power BI для интернет-маркетинга (2017) PCRec торрент скачать бесплатно

[NeedForData] Максим Уваров | Power BI для интернет-маркетинга (2017) PCRecАвтор: Максим Уваров
Производство: NeedForData
Жанр: Power BI

Описание

Онлайн курс включает в себя 15 видео-лекций. Это Первый в России онлайн-курс по Power BI для интернет-маркетинга. Максимально конкретный курс от практика. С душой.
Power BI — это набор средств для анализа данных. Он подходит для создания аналитических систем в самых разных случаях. Например, с его помощью можно сделать систему, которая выявляет проблемы в контекстной рекламе или отчёт для контроля за KPI интернет-маркетинга.
На курсе вы научитесь:
- извлекать данные из разных файлов, баз данных, API;
- преобразовывать данные для удобного анализа;
- интерпретировать и визуализировать данные для анализа.
Продолжительность: 04: 32: 00
Качество видео: PCRec
Видео: AVC/H.264, 1280x720, ~687 Kbps
Аудио: AAC, 2 ch, 126 Kbps
Общее
Полное имя : Урок 01. Знакомство с Power BI, примеры и получение данных из Liveinternet.ru1.1 Вводное слово.mp4
Формат : MPEG-4
Профиль формата : Base Media/Version 2
Идентификатор кодека : mp42 (isom/mp42)
Размер файла : 55, 9 Мбайт
Продолжительность : 9 м. 35 с.
Режим общего битрейта : Переменный
Общий поток : 815 Кбит/сек
Дата кодирования : UTC 2018-10-25 07: 14: 27
Дата пометки : UTC 2018-10-25 07: 14: 27
Видео
Идентификатор : 1
Формат : AVC
Формат/Информация : Advanced Video Codec
Профиль формата : [email protected]
Настройки формата : CABAC/3 Ref Frames
Параметр CABAC формата : Да
Параметр RefFrames формата : 3 кадра
Идентификатор кодека : avc1
Идентификатор кодека/Информация : Advanced Video Coding
Продолжительность : 9 м. 35 с.
Битрейт : 687 Кбит/сек
Ширина : 1 280 пикселей
Высота : 720 пикселей
Соотношение сторон : 16: 9
Режим частоты кадров : Постоянный
Частота кадров : 30, 000 кадров/сек
Стандарт вещания : NTSC
Цветовое пространство : YUV
Субдискретизация насыщенности : 4: 2: 0
Битовая глубина : 8 бит
Тип развёртки : Прогрессивная
Бит/(Пиксели*Кадры) : 0.025
Размер потока : 47, 1 Мбайт (84%)
Язык : English
Дата кодирования : UTC 2018-10-25 07: 14: 27
Дата пометки : UTC 2018-10-25 07: 14: 27
Цветовой диапазон : Limited
Codec configuration box : avcC
Аудио
Идентификатор : 2
Формат : AAC LC
Формат/Информация : Advanced Audio Codec Low Complexity
Идентификатор кодека : mp4a-40-2
Продолжительность : 9 м. 35 с.
Вид битрейта : Переменный
Битрейт : 126 Кбит/сек
Максимальный битрейт : 407 Кбит/сек
Каналы : 2 канала
Channel layout : L R
Частота : 44, 1 КГц
Частота кадров : 43, 066 кадра/сек (1024 SPF)
Метод сжатия : С потерями
Размер потока : 8, 62 Мбайт (15%)
Язык : English
Дата кодирования : UTC 2018-10-25 07: 14: 27
Дата пометки : UTC 2018-10-25 07: 14: 27

Другие торренты по теме:


Посетители, находящиеся в группе Гости, не могут оставлять комментарии в данной новости.
Для авторских прав
Вход на сайт
Навигация
Популярное

Энди Уорнер | Краткие истории обычных вещей (2019) [PDF]

(скачиваний: 21)
Касия Везовски, Патрик Везовски | Я понимаю тебя без слов. Как читать людей по жестам и мимике (2020) [PDF]

(скачиваний: 16)
Джейсон Уилкс | Математика в огне. Нескучный неучебник (2020) [PDF]

(скачиваний: 14)
Воган Лин | Blender 2.79 Средний уровень: Краб Бот / Blender 2.79 Intermediate: Crab Bot (2017) PCRec [H.264 / 1080p-LQ] [EN]

(скачиваний: 12)
Воган Лин | Blender 2.79 Средний уровень: Sci Fi коридор / Blender 2.79 Intermediate: Sci Fi Corridor (2018) PCRec [H.264 / 1080p-LQ] [EN]

(скачиваний: 11)
Воган Лин | Blender 2.8 Продвинутый: Грузовой космический корабль / Blender 2.8 Advanced: Cargo Spaceship (2019) PCRec [H.264 / 1080p-LQ] [EN]

(скачиваний: 10)
Андреас Штипплер, Норберт Регитниг-Тиллиан | Мышцы. Как у вас дела (2020) [FB2]

(скачиваний: 9)
Михаил Савич | «Первый» [11 книг] (2019) [FB2]

(скачиваний: 8)
Ренсом Риггз | Цикл «Мисс Перегрин» [6 книг] (2012-2020) [FB2] [Обновляемая]

(скачиваний: 7)
Вадим Панов | Зандр (2016) [FB2]

(скачиваний: 6)