Подписывайся на наш канал в Telegram https://t.me/torrentok и получи доступ к торрентам без ограничений!

KNP University | Подборка курсов KNP University (2010-2018) PCRec [En] торрент скачать бесплатно

KNP University | Подборка курсов KNP University (2010-2018) PCRec [En]Автор: KNP University
Жанр: Программирование

Описание

Подборка 69 различных курсов на английском языке по бек-енд разработке и symfony с площадки KNP University (нынешнее название SymfonyCasts)
Продолжительность: 90: 24: 14
Качество видео: PCRec
Язык озвучки: Английский
Видео: AVC/H.264, [email protected], ~412 Kbps
Аудио: AAC, 2 ch, 235 Kbps
Общее
Полное имя : Knp University 2010-2018Animated_Deployment_with_Ansistrano1-server-provision.mp4
Формат : MPEG-4
Профиль формата : Base Media/Version 2
Идентификатор кодека : mp42 (mp42/mp41/isom/avc1)
Размер файла : 40, 2 Мбайт
Продолжительность : 8 м. 37 с.
Режим общего битрейта : Переменный
Общий поток : 652 Кбит/сек
Дата кодирования : UTC 2017-09-21 22: 55: 38
Дата пометки : UTC 2017-09-21 22: 55: 38
Видео
Идентификатор : 1
Формат : AVC
Формат/Информация : Advanced Video Codec
Профиль формата : [email protected]
Настройки формата : CABAC/5 Ref Frames
Параметр CABAC формата : Да
Параметр RefFrames формата : 5 кадров
Идентификатор кодека : avc1
Идентификатор кодека/Информация : Advanced Video Coding
Продолжительность : 8 м. 37 с.
Битрейт : 412 Кбит/сек
Ширина : 1 280 пикселей
Высота : 720 пикселей
Соотношение сторон : 16: 9
Режим частоты кадров : Постоянный
Частота кадров : 30, 000 кадров/сек
Цветовое пространство : YUV
Субдискретизация насыщенности : 4: 2: 0
Битовая глубина : 8 бит
Тип развёртки : Прогрессивная
Бит/(Пиксели*Кадры) : 0.015
Размер потока : 25, 4 Мбайт (63%)
Библиотека кодирования : x264 core 150 r10 df79067
Дата кодирования : UTC 2017-09-21 22: 55: 38
Дата пометки : UTC 2017-09-21 22: 55: 38
Цветовой диапазон : Limited
Основные цвета : BT.709
Характеристики трансфера : BT.709
Коэффициенты матрицы : BT.709
Codec configuration box : avcC
Аудио
Идентификатор : 2
Формат : AAC LC
Формат/Информация : Advanced Audio Codec Low Complexity
Идентификатор кодека : mp4a-40-2
Продолжительность : 8 м. 37 с.
Вид битрейта : Переменный
Битрейт : 235 Кбит/сек
Каналы : 2 канала
Channel layout : L R
Частота : 48, 0 КГц
Частота кадров : 46, 875 кадров/сек (1024 SPF)
Метод сжатия : С потерями
Размер потока : 14, 5 Мбайт (36%)
Дата кодирования : UTC 2017-09-21 22: 55: 38
Дата пометки : UTC 2017-09-21 22: 55: 38

Другие торренты по теме:

  • Mystery University Cave Maze 1.0.0 [En] скачать через торрент бесплатно
  • Coursera. University of Wisconsin | Forests and Humans (2015) WEB-DL скачать через торрент бесплатно
  • Университет монстров / Monsters University (2013) BDRip [H.264 / 1080p-LQ]
  • Duke Ellington - Cornell University (1948) 2CD, 1995, Jazz Heritage [FLAC|Lossless|tracks + .cue] <Swing, Big Band>
  • Oxford University | Oxford Basic American Dictionary for learners of English (2011) [PDF]
  • SmartMe University | JAVAGR8 (2016) PCRec [H.264]
  • SmartMe University | Изучаем Ruby (2015) PCRec [H.264]
  • SmartMe University | Разработка API с Node.js (2015) PCRec [H.264 / 720p-LQ]

  • Посетители, находящиеся в группе Гости, не могут оставлять комментарии в данной новости.
    Для авторских прав
    Вход на сайт
    Навигация
    Популярное

    Энди Уорнер | Краткие истории обычных вещей (2019) [PDF]

    (скачиваний: 22)
    Касия Везовски, Патрик Везовски | Я понимаю тебя без слов. Как читать людей по жестам и мимике (2020) [PDF]

    (скачиваний: 18)
    Джейсон Уилкс | Математика в огне. Нескучный неучебник (2020) [PDF]

    (скачиваний: 14)
    Андреас Штипплер, Норберт Регитниг-Тиллиан | Мышцы. Как у вас дела (2020) [FB2]

    (скачиваний: 12)
    Воган Лин | Blender 2.79 Средний уровень: Sci Fi коридор / Blender 2.79 Intermediate: Sci Fi Corridor (2018) PCRec [H.264 / 1080p-LQ] [EN]

    (скачиваний: 11)
    Воган Лин | Blender 2.8 Продвинутый: Грузовой космический корабль / Blender 2.8 Advanced: Cargo Spaceship (2019) PCRec [H.264 / 1080p-LQ] [EN]

    (скачиваний: 10)
    Елена Перелыгина | НЛП: манипуляция или ключ к успеху (2020) [EPUB]

    (скачиваний: 9)
    Наоми Вульф | Вагина. Новая история женской сексуальности (2018) [FB2]

    (скачиваний: 8)
    Эрик Берн | Игры, в которые играют люди. Люди, которые играют в игры (сборник) (2017) [FB2]

    (скачиваний: 7)
    Марк Уолинн | Это началось не с тебя (2020) [FB2]

    (скачиваний: 6)