Подписывайся на наш канал в Telegram https://t.me/torrentok и получи доступ к торрентам без ограничений!

Виктор Рыжов | Продвинутый Power BI (2019) PCRec торрент скачать бесплатно

Виктор Рыжов | Продвинутый Power BI (2019) PCRecАвтор: Виктор Рыжов
Производство: LABA
Жанр: Power BI

Описание

В данном курсе Вы узнаете как анализировать отклонения и определять ключевые факторы влияния с помощью графиков. Научитесь делать каскадную, точечную и ленточную диаграммы. Работа с таблицами может быть проще. Вы научитесь работать с Х-формулами, создавать мультивалютный отчёт и использовать переменные в вычислениях. Еще Вы изучите VertiPaq и DAX Studio, проанализируите внутреннюю структуру модели, построите колоночную базу данных.
Продолжительность: 16: 21: 20
Качество видео: PCRec
Видео: AVC/H.264, 1280x720, ~1060 Kbps
Аудио: AAC, 2 ch, 117 Kbps
Общее
Полное имя : Виктор Рыжов - Продвинутый Power BI (2019)Занятие 1.mp4
Формат : MPEG-4
Профиль формата : Base Media
Идентификатор кодека : isom (isom/iso2/avc1/mp41)
Размер файла : 973 Мбайт
Продолжительность : 1 ч. 49 м.
Режим общего битрейта : Переменный
Общий поток : 1 246 Кбит/сек
Программа кодирования : Lavf57.71.100
Видео
Идентификатор : 1
Формат : AVC
Формат/Информация : Advanced Video Codec
Профиль формата : [email protected]
Настройки формата : CABAC/1 Ref Frames
Параметр CABAC формата : Да
Параметр RefFrames формата : 1 кадр
Параметр GOP формата : M=1, N=25
Идентификатор кодека : avc1
Идентификатор кодека/Информация : Advanced Video Coding
Продолжительность : 1 ч. 49 м.
Продолжительность оригинала : 1 ч. 49 м.
Вид битрейта : Постоянный
Битрейт : 1 060 Кбит/сек
Ширина : 1 280 пикселей
Высота : 720 пикселей
Соотношение сторон : 16: 9
Частота кадров : 29, 970 (30000/1001) кадров/сек
Цветовое пространство : YUV
Субдискретизация насыщенности : 4: 2: 0
Битовая глубина : 8 бит
Тип развёртки : Прогрессивная
Бит/(Пиксели*Кадры) : 0.038
Размер потока : 828 Мбайт (85%)
Размер потока оригинала : 828 Мбайт (85%)
Codec configuration box : avcC
Аудио
Идентификатор : 2
Формат : AAC LC
Формат/Информация : Advanced Audio Codec Low Complexity
Идентификатор кодека : mp4a-40-2
Продолжительность : 1 ч. 49 м.
Вид битрейта : Переменный
Битрейт : 177 Кбит/сек
Максимальный битрейт : 192 Кбит/сек
Каналы : 2 канала
Channel layout : L R
Частота : 44, 1 КГц
Частота кадров : 43, 066 кадра/сек (1024 SPF)
Метод сжатия : С потерями
Размер потока : 138 Мбайт (14%)
Default : Да
Alternate group : 1
Скриншоты:


Время раздачи: с 10: 00 до 02: 00 (до появления первых 3-5 скачавших)

Другие торренты по теме:

  • Виктор Рыжов | Power BI Аналитика и визуализация данных для бизнеса (2019) PCRec

  • Посетители, находящиеся в группе Гости, не могут оставлять комментарии в данной новости.
    Для авторских прав
    Вход на сайт
    Навигация
    Популярное

    Энди Уорнер | Краткие истории обычных вещей (2019) [PDF]

    (скачиваний: 21)
    Касия Везовски, Патрик Везовски | Я понимаю тебя без слов. Как читать людей по жестам и мимике (2020) [PDF]

    (скачиваний: 15)
    Джейсон Уилкс | Математика в огне. Нескучный неучебник (2020) [PDF]

    (скачиваний: 14)
    Воган Лин | Blender 2.79 Средний уровень: Краб Бот / Blender 2.79 Intermediate: Crab Bot (2017) PCRec [H.264 / 1080p-LQ] [EN]

    (скачиваний: 12)
    Воган Лин | Blender 2.79 Средний уровень: Sci Fi коридор / Blender 2.79 Intermediate: Sci Fi Corridor (2018) PCRec [H.264 / 1080p-LQ] [EN]

    (скачиваний: 11)
    Воган Лин | Blender 2.8 Продвинутый: Грузовой космический корабль / Blender 2.8 Advanced: Cargo Spaceship (2019) PCRec [H.264 / 1080p-LQ] [EN]

    (скачиваний: 10)
    Эми Морис | 13 привычек сильных духом людей (2019) [EPUB, PDF]

    (скачиваний: 9)
    И.В. Блохина и др. | Большая книга для каждого образованного человека. 10000 фактов, дат, событий (2018) [PDF]

    (скачиваний: 8)
    Андреас Штипплер, Норберт Регитниг-Тиллиан | Мышцы. Как у вас дела (2020) [FB2]

    (скачиваний: 7)
    Олег Дивов и др. | Цифрономикон [сборник] (2014) [FB2] скачать через торрент бесплатно

    (скачиваний: 6)