Подписывайся на наш канал в Telegram https://t.me/torrentok и получи доступ к торрентам без ограничений!

[Нетология] Павел Козлов | Power BI (2020) PCRec торрент скачать бесплатно

[Нетология] Павел Козлов | Power BI (2020) PCRecАвтор: Павел Козлов
Производство: Нетология
Жанр: Power BI

Описание

Курс научит разбираться в данных, выявлять неочевидные закономерности и новые точки роста, делать интуитивно понятные отчёты и дашборды с графиками для анализа показателей эффективности. Кроме Power BI, вы освоите технологии анализа Excel:
- Power Pivot для моделирования данных, создания развёрнутых отношений и сложных вычислений;
- Power Query для упрощения доступа и совместного использования данных;
- Power View для визуализации и преобразования данных в графики, карты и диаграммы.
Продолжительность: 20: 49: 58
Качество видео: PCRec
Видео: AVC/H.264, 1280x720, ~236 Kbps
Аудио: AAC, 2 ch, 132 Kbps
Общее
Полное имя : 05. Язык анализа данных DAXЯзык анализа данных DAX.mp4
Формат : MPEG-4
Профиль формата : Base Media
Идентификатор кодека : isom (isom/iso2/avc1/mp41)
Размер файла : 291 Мбайт
Продолжительность : 1 ч. 48 м.
Общий поток : 374 Кбит/сек
Программа кодирования : Lavf58.20.100
Видео
Идентификатор : 1
Формат : AVC
Формат/Информация : Advanced Video Codec
Профиль формата : [email protected]
Настройки формата : CABAC/4 Ref Frames
Параметр CABAC формата : Да
Параметр RefFrames формата : 4 кадра
Идентификатор кодека : avc1
Идентификатор кодека/Информация : Advanced Video Coding
Продолжительность : 1 ч. 48 м.
Битрейт : 236 Кбит/сек
Ширина : 1 280 пикселей
Высота : 720 пикселей
Соотношение сторон : 16: 9
Режим частоты кадров : Постоянный
Частота кадров : 20, 000 кадров/сек
Цветовое пространство : YUV
Субдискретизация насыщенности : 4: 2: 0
Битовая глубина : 8 бит
Тип развёртки : Прогрессивная
Бит/(Пиксели*Кадры) : 0.013
Размер потока : 183 Мбайт (63%)
Библиотека кодирования : x264 core 155
Настройки программы : cabac=1/ref=3/deblock=1: 0: 0/analyse=0x3: 0x113/me=hex/subme=7/psy=1/psy_rd=1.00: 0.00/mixed_ref=1/me_range=16/chroma_me=1/trellis=1/8x8dct=1/cqm=0/deadzone=21, 11/fast_pskip=1/chroma_qp_offset=-2/threads=12/lookahead_threads=2/sliced_threads=0/nr=0/decimate=1/interlaced=0/bluray_compat=0/constrained_intra=0/bframes=3/b_pyramid=2/b_adapt=1/b_bias=0/direct=1/weightb=1/open_gop=0/weightp=2/keyint=250/keyint_min=20/scenecut=40/intra_refresh=0/rc_lookahead=40/rc=crf/mbtree=1/crf=20.0/qcomp=0.60/qpmin=0/qpmax=69/qpstep=4/ip_ratio=1.40/aq=1: 1.00
Codec configuration box : avcC
Аудио
Идентификатор : 2
Формат : AAC LC
Формат/Информация : Advanced Audio Codec Low Complexity
Идентификатор кодека : mp4a-40-2
Продолжительность : 1 ч. 48 м.
Вид битрейта : Постоянный
Битрейт : 132 Кбит/сек
Каналы : 2 канала
Channel layout : L R
Частота : 44, 1 КГц
Частота кадров : 43, 066 кадра/сек (1024 SPF)
Метод сжатия : С потерями
Размер потока : 103 Мбайт (35%)
Default : Да
Alternate group : 1
Скриншоты:


Время раздачи: с 10: 00 до 02: 00 (до появления первых 3-5 скачавших)

Другие торренты по теме:

  • Центр Нетология | HTМL версткa. C нуля до первого макета (2015) PCRec [H.264 / 720p] скачать через торрент бесплатно
  • Нетология | HTML-верстка: инструменты и приемы профессиональной front-end разработки (2015) PCRec [H.264 / 720p] скачать через торрент бесплатно
  • Нетология | 36 миникурсов (2015) WEB-DL [H.264]
  • Нетология | Запуск стартапа: от поиска идеи до выхода на рынок (2015) PCRec
  • Нетология | Веб-дизайнер: эффективный сайт от идеи до реализации (2014) PCRec [H.264]
  • Нетология | SMM-менеджер: продвижение бизнеса в социальных сетях (2013) PCRec
  • Нетология | Основы объектно-ориентированного программирования (2015) PCRec [H.264 / 1080p]
  • Нетология | Работа со сложными клиентами (2016) WEB-DL

  • Посетители, находящиеся в группе Гости, не могут оставлять комментарии в данной новости.
    Для авторских прав
    Вход на сайт
    Навигация
    Популярное

    Энди Уорнер | Краткие истории обычных вещей (2019) [PDF]

    (скачиваний: 21)
    Касия Везовски, Патрик Везовски | Я понимаю тебя без слов. Как читать людей по жестам и мимике (2020) [PDF]

    (скачиваний: 16)
    Джейсон Уилкс | Математика в огне. Нескучный неучебник (2020) [PDF]

    (скачиваний: 14)
    Воган Лин | Blender 2.79 Средний уровень: Краб Бот / Blender 2.79 Intermediate: Crab Bot (2017) PCRec [H.264 / 1080p-LQ] [EN]

    (скачиваний: 12)
    Воган Лин | Blender 2.79 Средний уровень: Sci Fi коридор / Blender 2.79 Intermediate: Sci Fi Corridor (2018) PCRec [H.264 / 1080p-LQ] [EN]

    (скачиваний: 11)
    Воган Лин | Blender 2.8 Продвинутый: Грузовой космический корабль / Blender 2.8 Advanced: Cargo Spaceship (2019) PCRec [H.264 / 1080p-LQ] [EN]

    (скачиваний: 10)
    Андреас Штипплер, Норберт Регитниг-Тиллиан | Мышцы. Как у вас дела (2020) [FB2]

    (скачиваний: 9)
    Михаил Савич | «Первый» [11 книг] (2019) [FB2]

    (скачиваний: 8)
    Ренсом Риггз | Цикл «Мисс Перегрин» [6 книг] (2012-2020) [FB2] [Обновляемая]

    (скачиваний: 7)
    Вадим Панов | Зандр (2016) [FB2]

    (скачиваний: 6)