Подписывайся на наш канал в Telegram https://t.me/torrentok и получи доступ к торрентам без ограничений!

Анастасия Штарк | Базовый курс по портретной иллюстрации (2020) HDTVRip торрент скачать бесплатно

Анастасия Штарк | Базовый курс по портретной иллюстрации (2020) HDTVRipАвтор: Анастасия Штарк
Жанр: Рисование

Описание

Этот курс посвящен бесконечно притягательной теме - изображение человека, его самой выразительной части образа - лица. Портрет - это умение передавать внешний облик модели и, что максимально интересно как задача для рисующего, его внутренний мир. Курс нацелен на самые базовые знания и основы по портретной иллюстрации. На уроках мы будем разбираться в анатомических особенностях строения, построении объемов, с пластикой форм и линий у человека и как это все решать в его идейно-художественную интерпретацию. Именно так и формируется скетч портрет - не доводить до фотореализма и полного копирования как самоцель, а передать особенности лица, с пониманием объемов в интересной визуальной подачи.
Продолжительность: 09: 55: 10
Качество видео: HDTVRip
Видео: AVC/H.264, 1280x720-1920х1080, 25fps, ~5 145 Кбит/сек
Аудио: AAC, 2 ch, ~253 Кбит/сек
Формат : MPEG-4
Профиль формата : Base Media/Version 2
Идентификатор кодека : mp42 (mp42/mp41/isom/avc1)
Размер файла : 78, 9 Мбайт
Продолжительность : 2 м. 2 с.
Режим общего битрейта : Переменный
Общий поток : 5 402 Кбит/сек
Дата кодирования : UTC 2020-04-25 18: 11: 22
Дата пометки : UTC 2020-04-25 18: 11: 22
Видео
Идентификатор : 1
Формат : AVC
Формат/Информация : Advanced Video Codec
Профиль формата : [email protected]
Настройки формата : CABAC/5 Ref Frames
Параметр CABAC формата : Да
Параметр RefFrames формата : 5 кадров
Идентификатор кодека : avc1
Идентификатор кодека/Информация : Advanced Video Coding
Продолжительность : 2 м. 2 с.
Битрейт : 5 145 Кбит/сек
Ширина : 1 920 пикселей
Высота : 1 080 пикселей
Соотношение сторон : 16: 9
Режим частоты кадров : Постоянный
Частота кадров : 25, 000 кадров/сек
Цветовое пространство : YUV
Субдискретизация насыщенности : 4: 2: 0
Битовая глубина : 8 бит
Тип развёртки : Прогрессивная
Бит/(Пиксели*Кадры) : 0.099
Размер потока : 75, 1 Мбайт (95%)
Библиотека кодирования : x264 core 160 r10 33f9e14
Настройки программы : cabac=1/ref=5/deblock=1: 0: 0/analyse=0x3: 0x113/me=hex/subme=8/psy=1/psy_rd=1.00: 0.00/mixed_ref=1/me_range=16/chroma_me=1/trellis=2/8x8dct=1/cqm=0/deadzone=21, 11/fast_pskip=1/chroma_qp_offset=-2/threads=34/lookahead_threads=5/sliced_threads=0/nr=0/decimate=1/interlaced=0/bluray_compat=0/stitchable=1/constrained_intra=0/bframes=3/b_pyramid=2/b_adapt=2/b_bias=0/direct=3/weightb=1/open_gop=0/weightp=2/keyint=infinite/keyint_min=25/scenecut=40/intra_refresh=0/rc_lookahead=50/rc=crf/mbtree=1/crf=20.0/qcomp=0.60/qpmin=5/qpmax=69/qpstep=4/vbv_maxrate=5500/vbv_bufsize=15000/crf_max=0.0/nal_hrd=none/filler=0/ip_ratio=1.40/aq=1: 1.00
Дата кодирования : UTC 2020-04-25 18: 11: 22
Дата пометки : UTC 2020-04-25 18: 11: 22
Цветовой диапазон : Limited
Основные цвета : BT.709
Характеристики трансфера : BT.709
Коэффициенты матрицы : BT.709
Codec configuration box : avcC
Аудио
Идентификатор : 2
Формат : AAC LC
Формат/Информация : Advanced Audio Codec Low Complexity
Идентификатор кодека : mp4a-40-2
Продолжительность : 2 м. 2 с.
Вид битрейта : Переменный
Битрейт : 253 Кбит/сек
Каналы : 2 канала
Channel layout : L R
Частота : 48, 0 КГц
Частота кадров : 46, 875 кадров/сек (1024 SPF)
Метод сжатия : С потерями
Размер потока : 3, 70 Мбайт (5%)
Дата кодирования : UTC 2020-04-25 18: 11: 22
Дата пометки : UTC 2020-04-25 18: 11: 22
Скриншоты:


Время раздачи: с 9-00 до 20-00 (до появления первых 3-5 скачавших)

Другие торренты по теме:

  • Анастасия Романова | Я, Анастасия Романова (2018) [MP3]
  • Анастасия Левковская | Прятки без правил (2014) [FB2]
  • Анастасия Новых | Сборник произведений "Сэнсэй. Исконный Шамбалы" (2009 - 2015) [PDF, DJVU, DOC, FB2] скачать через торрент бесплатно
  • Анастасия Семенова, Ольга Шувалова | Лунный календарь в повседневной жизни (2010) [MP3] скачать через торрент бесплатно
  • Анастасия Скрипкина | Вкусные рецепты за 35 минут. 350 пошаговых фотографий (2013) [PDF] скачать через торрент бесплатно
  • Анастасия Третьякова | Бургеры (2015) [PDF]
  • Анастасия Волховская | Почему Мона Лиза улыбается И еще 100 детских "почему" про искусство и художников (2015) [PDF]
  • Анастасия Новых | Сэнсэй 4 (2016) [MP3]

  • Посетители, находящиеся в группе Гости, не могут оставлять комментарии в данной новости.
    Для авторских прав
    Вход на сайт
    Навигация
    Популярное

    Энди Уорнер | Краткие истории обычных вещей (2019) [PDF]

    (скачиваний: 20)
    Касия Везовски, Патрик Везовски | Я понимаю тебя без слов. Как читать людей по жестам и мимике (2020) [PDF]

    (скачиваний: 14)
    Воган Лин | Blender 2.79 Средний уровень: Краб Бот / Blender 2.79 Intermediate: Crab Bot (2017) PCRec [H.264 / 1080p-LQ] [EN]

    (скачиваний: 12)
    Воган Лин | Blender 2.79 Средний уровень: Sci Fi коридор / Blender 2.79 Intermediate: Sci Fi Corridor (2018) PCRec [H.264 / 1080p-LQ] [EN]

    (скачиваний: 11)
    Воган Лин | Blender 2.8 Продвинутый: Грузовой космический корабль / Blender 2.8 Advanced: Cargo Spaceship (2019) PCRec [H.264 / 1080p-LQ] [EN]

    (скачиваний: 10)
    Эми Морис | 13 привычек сильных духом людей (2019) [EPUB, PDF]

    (скачиваний: 8)
    С.П. Сапцов | Английский попроще. Фразовые глаголы (2020) [PDF]

    (скачиваний: 7)
    Олег Дивов и др. | Цифрономикон [сборник] (2014) [FB2] скачать через торрент бесплатно

    (скачиваний: 6)
    Михаил Савич | «Первый» [11 книг] (2019) [FB2]

    (скачиваний: 5)
    Ренсом Риггз | Собрание произведений [12 книг] (2011 - 2020) [FB2, EPUB]

    (скачиваний: 4)