Подписывайся на наш канал в Telegram https://t.me/torrentok и получи доступ к торрентам без ограничений!

Специалист | Microsoft Power BI Desktop для пользователей (2020) PCRec торрент скачать бесплатно

Специалист | Microsoft Power BI Desktop для пользователей (2020) PCRecАвтор: Ольга Кулешова
Производство: Специалист
Жанр: Power BI

Описание

Курс для опытных пользователей Excel многих специальностей: аналитики, финансовые аналитики, аудиторы, менеджеры и т.д., которые уже используют надстройки Power Pivot и Power Query и которым требуется строить множество наглядных и динамичных отчетов.
Продолжительность: 09: 28: 37
Качество видео: PCRec
Видео: AVC/H.264, 1280x720, ~1060 Kbps
Аудио: AAC, 2 ch, 178 Kbps
Общее
Полное имя : Microsoft Power BI Desktop для пользователей (2020)1_1.mp4
Формат : MPEG-4
Профиль формата : Base Media
Идентификатор кодека : isom (isom/iso2/avc1/mp41)
Размер файла : 1, 36 Гбайт
Продолжительность : 2 ч. 36 м.
Режим общего битрейта : Переменный
Общий поток : 1 247 Кбит/сек
Программа кодирования : Lavf57.71.100
Видео
Идентификатор : 1
Формат : AVC
Формат/Информация : Advanced Video Codec
Профиль формата : [email protected]
Настройки формата : CABAC/1 Ref Frames
Параметр CABAC формата : Да
Параметр RefFrames формата : 1 кадр
Параметр GOP формата : M=1, N=25
Идентификатор кодека : avc1
Идентификатор кодека/Информация : Advanced Video Coding
Продолжительность : 2 ч. 36 м.
Вид битрейта : Постоянный
Битрейт : 1 060 Кбит/сек
Ширина : 1 280 пикселей
Высота : 720 пикселей
Соотношение сторон : 16: 9
Частота кадров : 29, 970 (30000/1001) кадров/сек
Цветовое пространство : YUV
Субдискретизация насыщенности : 4: 2: 0
Битовая глубина : 8 бит
Тип развёртки : Прогрессивная
Бит/(Пиксели*Кадры) : 0.038
Размер потока : 1, 16 Гбайт (85%)
Codec configuration box : avcC
Аудио
Идентификатор : 2
Формат : AAC LC
Формат/Информация : Advanced Audio Codec Low Complexity
Идентификатор кодека : mp4a-40-2
Продолжительность : 2 ч. 36 м.
Вид битрейта : Переменный
Битрейт : 178 Кбит/сек
Максимальный битрейт : 192 Кбит/сек
Каналы : 2 канала
Channel layout : L R
Частота : 44, 1 КГц
Частота кадров : 43, 066 кадра/сек (1024 SPF)
Метод сжатия : С потерями
Размер потока : 199 Мбайт (14%)
Default : Да
Alternate group : 1
Скриншоты:


Время раздачи: с 10: 00 до 02: 00 (до появления первых 3-5 скачавших)

Другие торренты по теме:

  • Специалист | Microsoft Access 2013 / 2010 / 2007 [Уровни 1-3] (2014) PCRec скачать через торрент бесплатно
  • Специалист | Microsoft Excel 2013 / 2010. Уровень 3. Анализ и визуализация данных (2014) PCRec
  • Специалист | Microsoft Word 2016 / 2013. Уровень 1. Работа с Word 2016 / 2013 (2014, 2017) PCRec
  • Специалист | Microsoft Word 2010-2013. Уровень 2. Расширенные возможности (2014) PCRec [H.264]
  • Специалист | Microsoft PowerPoint 2010-2013 [уровень 1,2,3] (2013) PCRec [H.264]
  • Специалист | Курс М6236 (М2793) Внедрение и поддержка сервисов отчетов Microsoft SQL Server 2008 R2 / 2005 (2011) PCRec
  • Специалист | Курс М6234 (М2791) Внедрение и поддержка аналитических сервисов Microsoft SQL Server 2008 R2 / 2005 (2011) PCRec
  • Специалист | Курс M10263. Разработка решений на базе Windows Communication Foundation (WCF) в Microsoft Visual Studio (2012) PCRec скачать через торрент бесплатно

  • Посетители, находящиеся в группе Гости, не могут оставлять комментарии в данной новости.
    Для авторских прав
    Вход на сайт
    Навигация
    Популярное

    Энди Уорнер | Краткие истории обычных вещей (2019) [PDF]

    (скачиваний: 22)
    Касия Везовски, Патрик Везовски | Я понимаю тебя без слов. Как читать людей по жестам и мимике (2020) [PDF]

    (скачиваний: 20)
    Андреас Штипплер, Норберт Регитниг-Тиллиан | Мышцы. Как у вас дела (2020) [FB2]

    (скачиваний: 15)
    Джейсон Уилкс | Математика в огне. Нескучный неучебник (2020) [PDF]

    (скачиваний: 14)
    Елена Перелыгина | НЛП: манипуляция или ключ к успеху (2020) [EPUB]

    (скачиваний: 13)
    Воган Лин | Blender 2.79 Средний уровень: Краб Бот / Blender 2.79 Intermediate: Crab Bot (2017) PCRec [H.264 / 1080p-LQ] [EN]

    (скачиваний: 12)
    Воган Лин | Blender 2.79 Средний уровень: Sci Fi коридор / Blender 2.79 Intermediate: Sci Fi Corridor (2018) PCRec [H.264 / 1080p-LQ] [EN]

    (скачиваний: 11)
    Петр Панда | Копирайтинг: сила убеждения (2020) [EPUB]

    (скачиваний: 10)
    Мартин Брезиер | Затерянный мир Дарвина. Тайная история жизни на Земле (2020) [EPUB]

    (скачиваний: 9)
    Анна Гудкова | Питчинг. Как представить и продать свою идею (2020) [EPUB]

    (скачиваний: 8)