Подписывайся на наш канал в Telegram https://t.me/torrentok и получи доступ к торрентам без ограничений!

Geekbrains | Frontend-разработчик. Часть 1 из 5 (2020) PCRec торрент скачать бесплатно

Geekbrains | Frontend-разработчик. Часть 1 из 5 (2020) PCRecАвтор: Geekbrains
Жанр: Программирование

Описание

Frontend-разработчик создаёт интерфейсы, с которыми будут взаимодействовать пользователи, верстает сайты по современным стандартам, виртуозно владеет JavaScript, HTML, CSS.
Это востребованная и высокооплачиваемая профессия, которая включает технические и творческие компоненты. На позиции frontend-разработчика можно делать интернет лучше и удобнее.
Продолжительность: 21: 15: 35
Качество видео: PCRec
Видео: AVC/H.264, 1920x1080, ~310 Kbps
Аудио: AAC, 2 ch, 126 Kbps
Общее
Полное имя : Geekbrains Frontend-разработчик. Часть 1 из 5 (2020)HTML CSS. Интерактивный курс2 урокLesson2.mp4
Формат : MPEG-4
Профиль формата : Base Media/Version 2
Идентификатор кодека : mp42 (isom/mp42)
Размер файла : 170 Мбайт
Продолжительность : 54 м. 7 с.
Режим общего битрейта : Переменный
Общий поток : 438 Кбит/сек
Дата пометки : UTC 2020-07-12 13: 15: 28
Видео
Идентификатор : 1
Формат : AVC
Формат/Информация : Advanced Video Codec
Профиль формата : [email protected]
Настройки формата : 1 Ref Frames
Параметр CABAC формата : Нет
Параметр RefFrames формата : 1 кадр
Идентификатор кодека : avc1
Идентификатор кодека/Информация : Advanced Video Coding
Продолжительность : 54 м. 7 с.
Битрейт : 310 Кбит/сек
Ширина : 1 920 пикселей
Высота : 1 080 пикселей
Соотношение сторон : 16: 9
Режим частоты кадров : Постоянный
Частота кадров : 30, 000 кадров/сек
Стандарт вещания : NTSC
Цветовое пространство : YUV
Субдискретизация насыщенности : 4: 2: 0
Битовая глубина : 8 бит
Тип развёртки : Прогрессивная
Бит/(Пиксели*Кадры) : 0.005
Размер потока : 120 Мбайт (71%)
Язык : English
Дата кодирования : UTC 2020-07-12 13: 15: 28
Дата пометки : UTC 2020-07-12 13: 15: 28
Цветовой диапазон : Limited
Codec configuration box : avcC
Аудио
Идентификатор : 2
Формат : AAC LC
Формат/Информация : Advanced Audio Codec Low Complexity
Идентификатор кодека : mp4a-40-2
Продолжительность : 54 м. 7 с.
Вид битрейта : Переменный
Битрейт : 126 Кбит/сек
Максимальный битрейт : 256 Кбит/сек
Каналы : 2 канала
Channel layout : L R
Частота : 44, 1 КГц
Частота кадров : 43, 066 кадра/сек (1024 SPF)
Метод сжатия : С потерями
Размер потока : 48, 7 Мбайт (29%)
Язык : English
Дата кодирования : UTC 2020-07-12 13: 15: 28
Дата пометки : UTC 2020-07-12 13: 15: 28

Другие торренты по теме:

  • Geekbrains | Веб-дизайн. От новичка до профи (2015) PCRec [H.264 / 720p-LQ] скачать через торрент бесплатно
  • GeekBrains | HTML / CSS Основы создания сайтов (2015) PCRec [H.264 / 720p-LQ] скачать через торрент бесплатно
  • GeekBrains | nginx Создание веб-серверов (2014) PCRec [H.264 / 720p-LQ] скачать через торрент бесплатно
  • Geekbrains | PHP. Уровень 1 Основы веб-разработки (2015) PCRec [H.264 / 720p-LQ] скачать через торрент бесплатно
  • Geekbrains | Серьезный PHP (2014) PCRec [H.264] скачать через торрент бесплатно
  • Geekbrains | Основы программирования (2015) PCRec [H.264 / 720p-LQ] скачать через торрент бесплатно
  • Geekbrains | Java. Уровень 0 (2015) PCRec [H.264 / 720p-LQ] скачать через торрент бесплатно
  • Geekbrains | Objective C. Уровень 1 Программирование под iPhone и iPad (2015) PCRec [H.264 / 720p-LQ] скачать через торрент бесплатно

  • Посетители, находящиеся в группе Гости, не могут оставлять комментарии в данной новости.
    Для авторских прав
    Вход на сайт
    Навигация
    Популярное

    Энди Уорнер | Краткие истории обычных вещей (2019) [PDF]

    (скачиваний: 22)
    Касия Везовски, Патрик Везовски | Я понимаю тебя без слов. Как читать людей по жестам и мимике (2020) [PDF]

    (скачиваний: 18)
    Джейсон Уилкс | Математика в огне. Нескучный неучебник (2020) [PDF]

    (скачиваний: 14)
    Андреас Штипплер, Норберт Регитниг-Тиллиан | Мышцы. Как у вас дела (2020) [FB2]

    (скачиваний: 12)
    Воган Лин | Blender 2.79 Средний уровень: Sci Fi коридор / Blender 2.79 Intermediate: Sci Fi Corridor (2018) PCRec [H.264 / 1080p-LQ] [EN]

    (скачиваний: 11)
    Воган Лин | Blender 2.8 Продвинутый: Грузовой космический корабль / Blender 2.8 Advanced: Cargo Spaceship (2019) PCRec [H.264 / 1080p-LQ] [EN]

    (скачиваний: 10)
    Елена Перелыгина | НЛП: манипуляция или ключ к успеху (2020) [EPUB]

    (скачиваний: 9)
    Наоми Вульф | Вагина. Новая история женской сексуальности (2018) [FB2]

    (скачиваний: 8)
    Эрик Берн | Игры, в которые играют люди. Люди, которые играют в игры (сборник) (2017) [FB2]

    (скачиваний: 7)
    Марк Уолинн | Это началось не с тебя (2020) [FB2]

    (скачиваний: 6)