Подписывайся на наш канал в Telegram https://t.me/torrentok и получи доступ к торрентам без ограничений!

SF Education | Финансы для нефинансистов (2016) PCRec торрент скачать бесплатно

SF Education | Финансы для нефинансистов (2016) PCRecАвтор: SF Education
Жанр: Финансы

Описание

Освой основные навыки финансиста для быстрого старта карьеры в финансах и бизнесе!
Этот курс создан для новичков, желающих получить конкретное представление о финансовой индустрии. Он даст необходимый фундамент для дальнейшего погружения в сферу и укажет, в каком направлении двигаться. По итогам курса вы сформируете понимание о финансовой отрасли, узнаете, какие навыки и знания необходимы для построения карьеры в ней, и почувствуете себя уверенным специалистом для решения типовых задач по финансам.
Продолжительность: 426: 27: 23
Качество видео: PCRec
Видео: AVC/H.264, 640x480, ~91, 3 Kbps
Аудио: AAC, 1 ch, 66, 2 Kbps
Общее
Полное имя : SF Education Финансы для нефинансистовLevel 1Lesson 1Lesson 1Финансы_для_нефинансистов_от_Societe_Financiers_-_Занятие_1_(Поток_2)_10.10.2015_12-06-52.mp4
Формат : MPEG-4
Профиль формата : Base Media
Идентификатор кодека : isom (isom/iso2/avc1/mp41)
Размер файла : 302 Мбайт
Продолжительность : 4 ч. 19 м.
Общий поток : 163 Кбит/сек
Программа кодирования : Lavf55.19.104
Видео
Идентификатор : 1
Формат : AVC
Формат/Информация : Advanced Video Codec
Профиль формата : [email protected]
Настройки формата : 1 Ref Frames
Параметр CABAC формата : Нет
Параметр RefFrames формата : 1 кадр
Идентификатор кодека : avc1
Идентификатор кодека/Информация : Advanced Video Coding
Продолжительность : 4 ч. 19 м.
Битрейт : 91, 3 Кбит/сек
Ширина : 640 пикселей
Высота : 480 пикселей
Соотношение сторон : 4: 3
Режим частоты кадров : Переменный
Частота кадров : 25, 000 кадров/сек
Минимальная частота кадров : 0, 510 кадр/сек
Максимальная частота кадров : 25, 000 кадров/сек
Цветовое пространство : YUV
Субдискретизация насыщенности : 4: 2: 0
Битовая глубина : 8 бит
Тип развёртки : Прогрессивная
Бит/(Пиксели*Кадры) : 0.012
Размер потока : 169 Мбайт (56%)
Цветовой диапазон : Full
Codec configuration box : avcC
Аудио
Идентификатор : 2
Формат : AAC LC
Формат/Информация : Advanced Audio Codec Low Complexity
Идентификатор кодека : mp4a-40-2
Продолжительность : 4 ч. 19 м.
Вид битрейта : Постоянный
Битрейт : 66, 2 Кбит/сек
Каналы : 1 канал
Channel layout : C
Частота : 48, 0 КГц
Частота кадров : 46, 875 кадров/сек (1024 SPF)
Метод сжатия : С потерями
Размер потока : 124 Мбайт (41%)
Default : Да
Alternate group : 1
Скриншоты:


Время раздачи: 24/7 (до появления первых 3-5 скачавших)

Другие торренты по теме:

  • openSUSE 13.2.1 Education Li-f-e [i686, x86-64] 2xDVD скачать через торрент бесплатно
  • Search Engine Education | SEO-Коучинг 7.0 (2015) PCRec [H.264 / 720p] скачать через торрент бесплатно
  • Search Engine Education | SEO-ПРАКТИКУМ 3.0 (2015) PCRec [H.264 / 720p] скачать через торрент бесплатно
  • Microsoft Windows 10 Education - Оригинальные образы от Microsoft VLSC [En-Ru] скачать через торрент бесплатно
  • Microsoft Windows 10 Education 10.0.10586 Version 1511 - Оригинальные образы от Microsoft MSDN [Ru] скачать через торрент бесплатно
  • Windows 10 Volume N Professional, Education, Enterprise Build 10586 (th2release.151029-1700) [En] - MSVLSC скачать через торрент бесплатно
  • Раздолбайская учеба / Непутевая учеба / The Bad Education Movie (2015) BDRemux [H.264 / 1080p] [EN / EN Sub] скачать через торрент бесплатно
  • Раздолбайская учеба / Непутевая учеба / The Bad Education Movie (2015) DVDRip [VO] скачать через торрент бесплатно

  • Посетители, находящиеся в группе Гости, не могут оставлять комментарии в данной новости.
    Для авторских прав
    Вход на сайт
    Навигация
    Популярное

    Энди Уорнер | Краткие истории обычных вещей (2019) [PDF]

    (скачиваний: 22)
    Касия Везовски, Патрик Везовски | Я понимаю тебя без слов. Как читать людей по жестам и мимике (2020) [PDF]

    (скачиваний: 18)
    Джейсон Уилкс | Математика в огне. Нескучный неучебник (2020) [PDF]

    (скачиваний: 14)
    Андреас Штипплер, Норберт Регитниг-Тиллиан | Мышцы. Как у вас дела (2020) [FB2]

    (скачиваний: 12)
    Воган Лин | Blender 2.79 Средний уровень: Sci Fi коридор / Blender 2.79 Intermediate: Sci Fi Corridor (2018) PCRec [H.264 / 1080p-LQ] [EN]

    (скачиваний: 11)
    Воган Лин | Blender 2.8 Продвинутый: Грузовой космический корабль / Blender 2.8 Advanced: Cargo Spaceship (2019) PCRec [H.264 / 1080p-LQ] [EN]

    (скачиваний: 10)
    Елена Перелыгина | НЛП: манипуляция или ключ к успеху (2020) [EPUB]

    (скачиваний: 9)
    Наоми Вульф | Вагина. Новая история женской сексуальности (2018) [FB2]

    (скачиваний: 8)
    Эрик Берн | Игры, в которые играют люди. Люди, которые играют в игры (сборник) (2017) [FB2]

    (скачиваний: 7)
    Марк Уолинн | Это началось не с тебя (2020) [FB2]

    (скачиваний: 6)