Подписывайся на наш канал в Telegram https://t.me/torrentok и получи доступ к торрентам без ограничений!

Денис Овсянников | Zbrush с абсолютного нуля до про (2020) HDTVRip торрент скачать бесплатно

Денис Овсянников | Zbrush с абсолютного нуля до про (2020) HDTVRipАвтор: Денис Овсянников
Жанр: 3D скульптинг

Описание

Создавайте собственных персонажей в Zbrush! Даже если никогда не понимали, как это работает и как пользоваться этой программой. Из этого курса вы узнаете все актуальные и работающие техники для создания собственных персонажей и снаряжения для них.
Никаких предварительных знаний не требуется, курс рассчитан на людей, ни разу не имевших опыта в Zbrush и цифровом скульптинге.
Продолжительность: 13: 39: 32
Качество видео: HDTVRip
Видео: AVC/H.264, 1280х720, 30fps, ~1 391 Кбит/сек
Аудио: AAC, 2 ch, 128 Кбит/сек
Формат : MPEG-4
Профиль формата : Base Media
Идентификатор кодека : isom (isom/iso2/avc1/mp41)
Размер файла : 17, 3 Мбайт
Продолжительность : 46 с. 358 мс.
Общий поток : 3 133 Кбит/сек
Программа кодирования : Lavf58.12.100
Видео
Идентификатор : 1
Формат : AVC
Формат/Информация : Advanced Video Codec
Профиль формата : [email protected]
Настройки формата : CABAC/4 Ref Frames
Параметр CABAC формата : Да
Параметр RefFrames формата : 4 кадра
Параметр GOP формата : M=4, N=60
Идентификатор кодека : avc1
Идентификатор кодека/Информация : Advanced Video Coding
Продолжительность : 46 с. 267 мс.
Битрейт : 3 000 Кбит/сек
Ширина : 1 280 пикселей
Высота : 720 пикселей
Соотношение сторон : 16: 9
Режим частоты кадров : Постоянный
Частота кадров : 30, 000 кадров/сек
Цветовое пространство : YUV
Субдискретизация насыщенности : 4: 2: 0
Битовая глубина : 8 бит
Тип развёртки : Прогрессивная
Бит/(Пиксели*Кадры) : 0.109
Размер потока : 16, 6 Мбайт (96%)
Библиотека кодирования : x264 core 148
Настройки программы : cabac=1/ref=3/deblock=1: 0: 0/analyse=0x1: 0x111/me=umh/subme=6/psy=1/psy_rd=1.00: 0.00/mixed_ref=1/me_range=16/chroma_me=1/trellis=1/8x8dct=0/cqm=0/deadzone=21, 11/fast_pskip=1/chroma_qp_offset=-2/threads=22/lookahead_threads=3/sliced_threads=0/nr=0/decimate=1/interlaced=0/bluray_compat=0/constrained_intra=0/bframes=3/b_pyramid=2/b_adapt=1/b_bias=0/direct=1/weightb=1/open_gop=0/weightp=2/keyint=60/keyint_min=6/scenecut=0/intra_refresh=0/rc_lookahead=60/rc=cbr/mbtree=1/bitrate=3000/ratetol=1.0/qcomp=0.60/qpmin=0/qpmax=69/qpstep=4/vbv_maxrate=3000/vbv_bufsize=6000/nal_hrd=none/filler=0/ip_ratio=1.40/aq=1: 1.00
Codec configuration box : avcC
Аудио
Идентификатор : 2
Формат : AAC LC
Формат/Информация : Advanced Audio Codec Low Complexity
Идентификатор кодека : mp4a-40-2
Продолжительность : 46 с. 358 мс.
Вид битрейта : Постоянный
Битрейт : 128 Кбит/сек
Каналы : 2 канала
Channel layout : L R
Частота : 48, 0 КГц
Частота кадров : 46, 875 кадров/сек (1024 SPF)
Метод сжатия : С потерями
Размер потока : 725 Кбайт (4%)
Default : Да
Alternate group : 1
Скриншоты:


Время раздачи: с 9-00 до 20-00 (до появления первых 3-5 скачавших)

Другие торренты по теме:

  • Денис Луженский, Денис Лапицкий | Тени Шаттенбурга (2016) [FB2]
  • Nesprosta (Денис Блощинский) - Big-Big Boy (2012) [MP3|320 кб / с]<Alternative, Indie> скачать через торрент бесплатно
  • Денис Букин | Развитие памяти по методикам спецслужб (2014) [PDF] скачать через торрент бесплатно
  • Ирина Нельсон и Денис Клявер - Я за тебя молюсь (2014) HDTVRip [H.264 / 1080p-LQ] скачать через торрент бесплатно
  • Денис Борисов | Баблоруб интернетный [книга + рип форума] (2014) [PDF] скачать через торрент бесплатно
  • Денис Борисов | Летняя схема (2015) PCRec [H.264 / 720p] скачать через торрент бесплатно
  • Денис Запорожец, Владислав Писаренко | Новая реальность (2013) [FB2] скачать через торрент бесплатно
  • Денис Букин | Развитие памяти по методикам спецслужб (2014) [FB2, RTF] скачать через торрент бесплатно

  • Посетители, находящиеся в группе Гости, не могут оставлять комментарии в данной новости.
    Для авторских прав
    Вход на сайт
    Навигация
    Популярное

    Энди Уорнер | Краткие истории обычных вещей (2019) [PDF]

    (скачиваний: 20)
    Касия Везовски, Патрик Везовски | Я понимаю тебя без слов. Как читать людей по жестам и мимике (2020) [PDF]

    (скачиваний: 14)
    Сара Андерсен | Дрессировщик котиков. Руководство по выживанию в безумном современном мире (2018) [PDF]

    (скачиваний: 11)
    Воган Лин | Blender 2.79 Средний уровень: Краб Бот / Blender 2.79 Intermediate: Crab Bot (2017) PCRec [H.264 / 1080p-LQ] [EN]

    (скачиваний: 10)
    Эми Морис | 13 привычек сильных духом людей (2019) [EPUB, PDF]

    (скачиваний: 8)
    Воган Лин | Blender 2.79 Средний уровень: Sci Fi коридор / Blender 2.79 Intermediate: Sci Fi Corridor (2018) PCRec [H.264 / 1080p-LQ] [EN]

    (скачиваний: 7)
    Воган Лин | Blender 2.8 Продвинутый: Грузовой космический корабль / Blender 2.8 Advanced: Cargo Spaceship (2019) PCRec [H.264 / 1080p-LQ] [EN]

    (скачиваний: 6)
    И.В. Блохина и др. | Большая книга для каждого образованного человека. 10000 фактов, дат, событий (2018) [PDF]

    (скачиваний: 5)
    Олег Дивов | Серия: Новый Дивов [10 книг. Обновляемая] (2012-2016) [FB2]

    (скачиваний: 4)
    Журнал | Auto Express UK №26 (июнь 2019) [PDF] [En]

    (скачиваний: 3)