Подписывайся на наш канал в Telegram https://t.me/torrentok и получи доступ к торрентам без ограничений!

Яндекс.Практикум | Профессия Python-разработчик [Часть 3 из 8] (2020) PCRec торрент скачать бесплатно

Яндекс.Практикум | Профессия Python-разработчик [Часть 3 из 8] (2020) PCRecАвтор: Яндекс.Практикум
Жанр: Программирование, Python

Описание

Python-разработчик создаёт бэкенд сайтов: мозг, который принимает запросы, общается с базой данных и передаёт нужную информацию пользователю. Разработчик проектирует алгоритмы взаимодействия сайта с другими интернет-сервисами. Вы изучите язык Python: он востребован и прост. Вы также освоите важнейшие инструменты бэкендера: Django, базы данных, git. В процессе обучения создадите несколько действующих сервисов.
Продолжительность: 08: 34: 41
Качество видео: PCRec
Видео: AVC/H.264, 1920x1080, ~261 Kbps
Аудио: AAC, 2 ch, 320 Kbps
Общее
Полное имя : Яндекс.Практикум Python-разработчик. Часть 3 из 8 (2020)6_Спринтweb_1.mp4
Формат : MPEG-4
Профиль формата : Base Media
Идентификатор кодека : isom (isom/avc1)
Размер файла : 244 Мбайт
Продолжительность : 58 м. 15 с.
Режим общего битрейта : Переменный
Общий поток : 586 Кбит/сек
Дата кодирования : UTC 2020-07-25 12: 50: 13
Дата пометки : UTC 2020-07-25 12: 50: 13
Видео
Идентификатор : 1
Формат : AVC
Формат/Информация : Advanced Video Codec
Профиль формата : [email protected]
Настройки формата : CABAC/4 Ref Frames
Параметр CABAC формата : Да
Параметр RefFrames формата : 4 кадра
Идентификатор кодека : avc1
Идентификатор кодека/Информация : Advanced Video Coding
Продолжительность : 58 м. 15 с.
Битрейт : 261 Кбит/сек
Максимальный битрейт : 4 484 Кбит/сек
Ширина : 1 920 пикселей
Высота : 1 080 пикселей
Соотношение сторон : 16: 9
Режим частоты кадров : Постоянный
Частота кадров : 30, 000 кадров/сек
Цветовое пространство : YUV
Субдискретизация насыщенности : 4: 2: 0
Битовая глубина : 8 бит
Тип развёртки : Прогрессивная
Бит/(Пиксели*Кадры) : 0.004
Размер потока : 109 Мбайт (45%)
Заголовок : [email protected]
Библиотека кодирования : x264 core 157 r2935 545de2f
Дата кодирования : UTC 2020-07-25 12: 50: 13
Дата пометки : UTC 2020-07-25 12: 50: 44
Цветовой диапазон : Full
Codec configuration box : avcC
Аудио
Идентификатор : 2
Формат : AAC LC
Формат/Информация : Advanced Audio Codec Low Complexity
Идентификатор кодека : mp4a-40-2
Продолжительность : 58 м. 15 с.
Вид битрейта : Переменный
Битрейт : 320 Кбит/сек
Максимальный битрейт : 334 Кбит/сек
Каналы : 2 канала
Channel layout : L R
Частота : 44, 1 КГц
Частота кадров : 43, 066 кадра/сек (1024 SPF)
Метод сжатия : С потерями
Размер потока : 133 Мбайт (55%)
Дата кодирования : UTC 2020-07-25 11: 49: 16
Дата пометки : UTC 2020-07-25 12: 50: 44

Другие торренты по теме:

  • Яндекс.Практикум | Профессия Python-разработчик. Часть 1 из 8 (2020) PCRec [H.264 / 1080p-LQ]
  • Яндекс.Практикум | Профессия Python-разработчик. Часть 2 из 8 (2020) PCRec [H.264 / 720p-LQ]

  • Посетители, находящиеся в группе Гости, не могут оставлять комментарии в данной новости.
    Для авторских прав
    Вход на сайт
    Навигация
    Популярное

    Энди Уорнер | Краткие истории обычных вещей (2019) [PDF]

    (скачиваний: 22)
    Касия Везовски, Патрик Везовски | Я понимаю тебя без слов. Как читать людей по жестам и мимике (2020) [PDF]

    (скачиваний: 18)
    Джейсон Уилкс | Математика в огне. Нескучный неучебник (2020) [PDF]

    (скачиваний: 14)
    Андреас Штипплер, Норберт Регитниг-Тиллиан | Мышцы. Как у вас дела (2020) [FB2]

    (скачиваний: 12)
    Воган Лин | Blender 2.79 Средний уровень: Sci Fi коридор / Blender 2.79 Intermediate: Sci Fi Corridor (2018) PCRec [H.264 / 1080p-LQ] [EN]

    (скачиваний: 11)
    Воган Лин | Blender 2.8 Продвинутый: Грузовой космический корабль / Blender 2.8 Advanced: Cargo Spaceship (2019) PCRec [H.264 / 1080p-LQ] [EN]

    (скачиваний: 10)
    Елена Перелыгина | НЛП: манипуляция или ключ к успеху (2020) [EPUB]

    (скачиваний: 9)
    Наоми Вульф | Вагина. Новая история женской сексуальности (2018) [FB2]

    (скачиваний: 8)
    Эрик Берн | Игры, в которые играют люди. Люди, которые играют в игры (сборник) (2017) [FB2]

    (скачиваний: 7)
    Марк Уолинн | Это началось не с тебя (2020) [FB2]

    (скачиваний: 6)