Подписывайся на наш канал в Telegram https://t.me/torrentok и получи доступ к торрентам без ограничений!

[Курсы-по-1С.РФ] Гилев Евгений, Насипов Фарид | Тренинг-интенсив по 1С: Конвертации данных 3.0 (2016) PCRec торрент скачать бесплатно

[Курсы-по-1С.РФ] Гилев Евгений, Насипов Фарид | Тренинг-интенсив по 1С: Конвертации данных 3.0 (2016) PCRecАвтор: Гилев Евгений, Насипов Фарид
Производство: Курсы-по-1С.РФ
Жанр: Программирование 1С

Описание

Курс построено на практических задачах
Мы считаем, что навык появится только поле того, как будет отработано хотя бы несколько типовых задач.
Поэтому мы разобрали 45 практических ситуаций, когда возникают обмены данными, переносы и конвертации объектов.
Кроме того, мы отобрали 16 задач для “закрепления руками” (домашние задания).
Продолжительность: 10: 00: 39
Качество видео: PCRec
Видео: AVC/H.264, 1280х720, ~61, 6 Kbps
Аудио: AAC, 2 ch, 126 Kbps
Общее
Полное имя : Тренинг - Интенсив по 1С Конвертации данных 3.0 (2016)21. 2-е занятие - ВидеоурокиConv30-Chapter02-Lesson00.mp4
Формат : MPEG-4
Профиль формата : Base Media/Version 2
Идентификатор кодека : mp42 (isom/mp42)
Размер файла : 929 Кбайт
Продолжительность : 40 с. 31 мс.
Режим общего битрейта : Переменный
Общий поток : 190 Кбит/сек
Дата кодирования : UTC 2016-11-01 10: 43: 10
Дата пометки : UTC 2016-11-01 10: 43: 10
Видео
Идентификатор : 1
Формат : AVC
Формат/Информация : Advanced Video Codec
Профиль формата : [email protected]
Настройки формата : CABAC/3 Ref Frames
Параметр CABAC формата : Да
Параметр RefFrames формата : 3 кадра
Параметр GOP формата : M=1, N=75
Идентификатор кодека : avc1
Идентификатор кодека/Информация : Advanced Video Coding
Продолжительность : 40 с. 0 мс.
Битрейт : 61, 6 Кбит/сек
Ширина : 1 280 пикселей
Высота : 720 пикселей
Соотношение сторон : 16: 9
Режим частоты кадров : Постоянный
Частота кадров : 15, 000 кадров/сек
Цветовое пространство : YUV
Субдискретизация насыщенности : 4: 2: 0
Битовая глубина : 8 бит
Тип развёртки : Прогрессивная
Бит/(Пиксели*Кадры) : 0.004
Размер потока : 301 Кбайт (32%)
Язык : English
Дата кодирования : UTC 2016-11-01 10: 43: 12
Дата пометки : UTC 2016-11-01 10: 43: 12
Цветовой диапазон : Limited
Codec configuration box : avcC
Аудио
Идентификатор : 2
Формат : AAC LC
Формат/Информация : Advanced Audio Codec Low Complexity
Идентификатор кодека : mp4a-40-2
Продолжительность : 40 с. 31 мс.
Вид битрейта : Переменный
Битрейт : 126 Кбит/сек
Максимальный битрейт : 152 Кбит/сек
Каналы : 2 канала
Channel layout : L R
Частота : 44, 1 КГц
Частота кадров : 43, 066 кадра/сек (1024 SPF)
Метод сжатия : С потерями
Размер потока : 614 Кбайт (66%)
Язык : English
Дата кодирования : UTC 2016-11-01 10: 43: 12
Дата пометки : UTC 2016-11-01 10: 43: 12
Скриншоты:


Время раздачи: 24/7 (до появления первых 3-5 скачавших)

Другие торренты по теме:

  • [Курсы-по-1С.РФ] Гилев Евгений, Насипов Фарид | Курс по управленческому учету в 1С:ERP 2.2 и подготовка к Аттестации 1С: Специалист-Консультант по управленческому учету (2017) PCRec
  • [Курсы-по-1С.РФ] Гилев Евгений, Насипов Фарид | Полный курс по 1С-Бухгалтерии 8 (редакция 3.0) (2015) PCRec
  • [Курсы-по-1С.РФ] Гилев Евгений, Насипов Фарид | Тренинг-интенсив по 1С: Конвертации данных 2.1 (2016) PCRec
  • [Курсы по 1С.РФ] Гилев Евгений, Насипов Фарид | Профессиональная разработка отчетов в 1С 8.3 на Системе Компоновки Данных (СКД) (2016) PCRec
  • [Курсы по 1С.РФ] Гилев Евгений, Насипов Фарид | Разработка и оптимизация запросов в 1С: Предприятие 8.3 (2014) PCRec
  • [Курсы-по-1С.РФ] Гилев Евгений, Насипов Фарид | Разработка мобильных приложений на платформе 1С (2014) PCRec
  • [Курсы-по-1С.РФ] Гилев Евгений, Насипов Фарид | 1С: Программист — Быстрый старт в профессию! (2015) PCRec

  • Посетители, находящиеся в группе Гости, не могут оставлять комментарии в данной новости.
    Для авторских прав
    Вход на сайт
    Навигация
    Популярное

    Энди Уорнер | Краткие истории обычных вещей (2019) [PDF]

    (скачиваний: 22)
    Касия Везовски, Патрик Везовски | Я понимаю тебя без слов. Как читать людей по жестам и мимике (2020) [PDF]

    (скачиваний: 18)
    Джейсон Уилкс | Математика в огне. Нескучный неучебник (2020) [PDF]

    (скачиваний: 14)
    Андреас Штипплер, Норберт Регитниг-Тиллиан | Мышцы. Как у вас дела (2020) [FB2]

    (скачиваний: 12)
    Воган Лин | Blender 2.79 Средний уровень: Sci Fi коридор / Blender 2.79 Intermediate: Sci Fi Corridor (2018) PCRec [H.264 / 1080p-LQ] [EN]

    (скачиваний: 11)
    Воган Лин | Blender 2.8 Продвинутый: Грузовой космический корабль / Blender 2.8 Advanced: Cargo Spaceship (2019) PCRec [H.264 / 1080p-LQ] [EN]

    (скачиваний: 10)
    Елена Перелыгина | НЛП: манипуляция или ключ к успеху (2020) [EPUB]

    (скачиваний: 9)
    Наоми Вульф | Вагина. Новая история женской сексуальности (2018) [FB2]

    (скачиваний: 8)
    Эрик Берн | Игры, в которые играют люди. Люди, которые играют в игры (сборник) (2017) [FB2]

    (скачиваний: 7)
    Марк Уолинн | Это началось не с тебя (2020) [FB2]

    (скачиваний: 6)