Подписывайся на наш канал в Telegram https://t.me/torrentok и получи доступ к торрентам без ограничений!

Creative Shrimp, CG Masters | Твёрдотельное моделирование в Blender 2.8 / Hard Surface Modeling in Blender 2.8 Update (2019) PCRec [EN / EN Sub] торрент скачать бесплатно

Creative Shrimp, CG Masters | Твёрдотельное моделирование в Blender 2.8 / Hard Surface Modeling in Blender 2.8 Update (2019) PCRec [EN / EN Sub]Автор: Энди Берроуз, Глеб Александров/Aidy Burrows, Gleb Alexandrov
Производство: Creative Shrimp, CG Masters
Жанр: 3D моделирование

Описание

Это долгожданное обновление 2.80+ для нашего самого популярного видеокурса Hard Surface Modeling in Blender. Не полный ремейк, а скорее 7 часов совершенно нового контента 2.80+, чтобы облегчить переход на более новые версии Blender.
Продолжительность: 07: 51: 57
Качество видео: PCRec
Перевод: Отсутствует
Язык озвучки: Английский
Субтитры: Английские
Видео: AVC/H.264, 2560х1440, ~2159 Kbps
Аудио: AAC, 2 ch, 265 Kbps, CBR
General
Complete name : C: TorrentsCreative Shrimp CGMasters - Hard Surface Modeling in Blender 2.8 Update (2019)2.8_HSM_05_Bevel.mp4
Format : MPEG-4
Format profile : Base Media/Version 2
Codec ID : mp42 (isom/iso2/avc1/mp41)
File size : 518 MiB
Duration : 29 min 49 s
Overall bit rate mode : Variable
Overall bit rate : 2 429 kb/s
Encoded date : UTC 2019-12-19 17: 43: 50
Tagged date : UTC 2019-12-19 17: 43: 50
Writing application : HandBrake 1.2.2 2019022300
Video
ID : 1
Format : AVC
Format/Info : Advanced Video Codec
Format profile : [email protected]
Format settings : CABAC/2 Ref Frames
Format settings, CABAC : Yes
Format settings, Reference : 2 frames
Codec ID : avc1
Codec ID/Info : Advanced Video Coding
Duration : 29 min 49 s
Bit rate : 2 159 kb/s
Width : 2 560 pixels
Height : 1 440 pixels
Display aspect ratio : 16: 9
Frame rate mode : Constant
Frame rate : 30.000 FPS
Color space : YUV
Chroma subsampling : 4: 2: 0
Bit depth : 8 bits
Scan type : Progressive
Bits/(Pixel*Frame) : 0.020
Stream size : 461 MiB (89%)
Writing library : x264 core 157 r2935 545de2f
Encoding settings : cabac=1/ref=1/deblock=1: 0: 0/analyse=0x1: 0x111/me=hex/subme=7/psy=1/psy_rd=1.00: 0.00/mixed_ref=0/me_range=16/chroma_me=1/trellis=1/8x8dct=0/cqm=0/deadzone=21, 11/fast_pskip=1/chroma_qp_offset=-2/threads=24/lookahead_threads=4/sliced_threads=0/nr=0/decimate=1/interlaced=0/bluray_compat=0/constrained_intra=0/bframes=2/b_pyramid=0/b_adapt=1/b_bias=0/direct=1/weightb=1/open_gop=0/weightp=2/keyint=30/keyint_min=15/scenecut=40/intra_refresh=0/rc_lookahead=37/rc=crf/mbtree=1/crf=22.0/qcomp=0.60/qpmin=0/qpmax=69/qpstep=4/vbv_maxrate=20000/vbv_bufsize=25000/crf_max=0.0/nal_hrd=none/filler=0/ip_ratio=1.40/aq=1: 1.00
Encoded date : UTC 2019-12-19 17: 43: 50
Tagged date : UTC 2019-12-19 17: 43: 50
Color range : Limited
Color primaries : BT.709
Transfer characteristics : BT.709
Matrix coefficients : BT.709
Codec configuration box : avcC
Audio
ID : 2
Format : AAC LC
Format/Info : Advanced Audio Codec Low Complexity
Codec ID : mp4a-40-2
Duration : 29 min 49 s
Bit rate mode : Constant
Bit rate : 265 kb/s
Channel(s) : 2 channels
Channel layout : L R
Sampling rate : 48.0 kHz
Frame rate : 46.875 FPS (1024 SPF)
Compression mode : Lossy
Stream size : 55.8 MiB (11%)
Title : Stereo
Language : English
Default : Yes
Alternate group : 1
Encoded date : UTC 2019-12-19 17: 43: 50
Tagged date : UTC 2019-12-19 17: 43: 50
Text
ID : 3
Format : Timed Text
Muxing mode : sbtl
Codec ID : tx3g
Duration : 29 min 49 s
Bit rate mode : Variable
Bit rate : 114 b/s
Stream size : 24.8 KiB (0%)
Language : English
Default : Yes
Forced : No
Alternate group : 3
Encoded date : UTC 2019-12-19 17: 43: 50
Tagged date : UTC 2019-12-19 17: 43: 50

Другие торренты по теме:

  • Creative Shrimp | 50 проблем 3D моделирования из ада в Blender 2.8 / 50 Modeling Issues From Hell in Blender 2.8 (2020) PCRec [H.264 / 1440p-LQ] [EN]
  • Creative Shrimp | Космические визуальные эффекты: создание галактики в Blender / Space VFX Elements: Creating the Galaxy in Blender (2016) PCRec [H.264 / 1080p-LQ] [EN]
  • Creative Shrimp | Реалистичное освещение в Blender / Realistic Lighting in Blender (2016) PCRec [H.264 / 1080p-LQ] [EN]

  • Посетители, находящиеся в группе Гости, не могут оставлять комментарии в данной новости.
    Для авторских прав
    Вход на сайт
    Навигация
    Популярное

    Энди Уорнер | Краткие истории обычных вещей (2019) [PDF]

    (скачиваний: 21)
    Касия Везовски, Патрик Везовски | Я понимаю тебя без слов. Как читать людей по жестам и мимике (2020) [PDF]

    (скачиваний: 16)
    Джейсон Уилкс | Математика в огне. Нескучный неучебник (2020) [PDF]

    (скачиваний: 14)
    Воган Лин | Blender 2.79 Средний уровень: Краб Бот / Blender 2.79 Intermediate: Crab Bot (2017) PCRec [H.264 / 1080p-LQ] [EN]

    (скачиваний: 12)
    Воган Лин | Blender 2.79 Средний уровень: Sci Fi коридор / Blender 2.79 Intermediate: Sci Fi Corridor (2018) PCRec [H.264 / 1080p-LQ] [EN]

    (скачиваний: 11)
    Воган Лин | Blender 2.8 Продвинутый: Грузовой космический корабль / Blender 2.8 Advanced: Cargo Spaceship (2019) PCRec [H.264 / 1080p-LQ] [EN]

    (скачиваний: 10)
    Андреас Штипплер, Норберт Регитниг-Тиллиан | Мышцы. Как у вас дела (2020) [FB2]

    (скачиваний: 9)
    Михаил Савич | «Первый» [11 книг] (2019) [FB2]

    (скачиваний: 8)
    Ренсом Риггз | Цикл «Мисс Перегрин» [6 книг] (2012-2020) [FB2] [Обновляемая]

    (скачиваний: 7)
    В.Н. Шунков | Полная энциклопедия вооружений СССР Второй мировой войны (2010) [PDF]

    (скачиваний: 6)