Подписывайся на наш канал в Telegram https://t.me/torrentok и получи доступ к торрентам без ограничений!

Creative Shrimp, CG Masters | Твёрдотельное моделирование в Blender 2.79 / Hard Surface Modeling in Blender 2.79 (2018) PCRec [RU / EN] торрент скачать бесплатно

Creative Shrimp, CG Masters | Твёрдотельное моделирование в Blender 2.79 / Hard Surface Modeling in Blender 2.79 (2018) PCRec [RU / EN]Автор: Энди Берроуз, Глеб Александров/Aidy Burrows, Gleb Alexandrov
Производство: Creative Shrimp, CG Masters
Жанр: 3D моделирование

Описание

Индустрия моделирования твердых поверхностей процветает, и это неудивительно, так как любовь к созданию твердых поверхностей была сильна уже давно! Теперь количество возможностей для моделистов твердых поверхностей огромно: концепт-арт для научно-фантастических фильмов, реквизит для видеоигр, реальный роботизированный дизайн, 3d-печать.
Продолжительность: 13: 57: 23
Качество видео: PCRec
Язык озвучки: Русский, Английский
Видео: AVC/H.264, 2560х1440, ~782 Kbps
Аудио: MP3, 2 ch, 192 Kbps, CBR - Русский, Одноголосый
Аудио: AAC, 2 ch, 64 Kbps, CBR - Английский, Оригинал
General
Complete name : C: TorrentsCreative Shrimp CGMasters - Hard Surface Modeling in Blender 2.79 (2018) RUS, ENG0_INTRODUCTION_01.mp4
Format : MPEG-4
Format profile : Base Media
Codec ID : isom (isom/iso2/avc1/mp41)
File size : 76.4 MiB
Duration : 10 min 12 s
Overall bit rate : 1 046 kb/s
Writing application : Lavf58.45.100
Video
ID : 1
Format : AVC
Format/Info : Advanced Video Codec
Format profile : [email protected]
Format settings : CABAC/16 Ref Frames
Format settings, CABAC : Yes
Format settings, Reference : 16 frames
Codec ID : avc1
Codec ID/Info : Advanced Video Coding
Duration : 10 min 12 s
Bit rate : 782 kb/s
Width : 2 560 pixels
Height : 1 440 pixels
Display aspect ratio : 16: 9
Frame rate mode : Constant
Frame rate : 30.000 FPS
Color space : YUV
Chroma subsampling : 4: 2: 0
Bit depth : 8 bits
Scan type : Progressive
Bits/(Pixel*Frame) : 0.007
Stream size : 57.1 MiB (75%)
Writing library : x264 core 150
Encoding settings : cabac=1/ref=16/deblock=1: 0: 0/analyse=0x3: 0x133/me=umh/subme=10/psy=1/psy_rd=1.00: 0.00/mixed_ref=1/me_range=24/chroma_me=1/trellis=2/8x8dct=1/cqm=0/deadzone=21, 11/fast_pskip=1/chroma_qp_offset=-2/threads=12/lookahead_threads=2/sliced_threads=0/nr=0/decimate=1/interlaced=0/bluray_compat=0/constrained_intra=0/bframes=8/b_pyramid=2/b_adapt=2/b_bias=0/direct=3/weightb=1/open_gop=0/weightp=2/keyint=250/keyint_min=25/scenecut=40/intra_refresh=0/rc_lookahead=60/rc=crf/mbtree=1/crf=30.0/qcomp=0.60/qpmin=0/qpmax=69/qpstep=4/ip_ratio=1.40/aq=1: 1.00
Language : English
Codec configuration box : avcC
Audio #1
ID : 2
Format : MPEG Audio
Format version : Version 1
Format profile : Layer 3
Format settings : Joint stereo/MS Stereo
Codec ID : mp4a-6B
Duration : 10 min 12 s
Bit rate mode : Constant
Bit rate : 192 kb/s
Channel(s) : 2 channels
Sampling rate : 44.1 kHz
Compression mode : Lossy
Stream size : 14.0 MiB (18%)
Title : Russian
Language : Russian
Default : Yes
Alternate group : 1
Audio #2
ID : 3
Format : AAC LC
Format/Info : Advanced Audio Codec Low Complexity
Codec ID : mp4a-40-2
Duration : 10 min 12 s
Bit rate mode : Constant
Bit rate : 64.0 kb/s
Channel(s) : 2 channels
Channel layout : L R
Sampling rate : 48.0 kHz
Frame rate : 46.875 FPS (1024 SPF)
Compression mode : Lossy
Stream size : 4.67 MiB (6%)
Title : English (Original)
Language : English
Default : No
Alternate group : 1

Другие торренты по теме:

  • Creative Shrimp | 50 проблем 3D моделирования из ада в Blender 2.8 / 50 Modeling Issues From Hell in Blender 2.8 (2020) PCRec [H.264 / 1440p-LQ] [EN]
  • Creative Shrimp | Космические визуальные эффекты: создание галактики в Blender / Space VFX Elements: Creating the Galaxy in Blender (2016) PCRec [H.264 / 1080p-LQ] [EN]
  • Creative Shrimp | Реалистичное освещение в Blender / Realistic Lighting in Blender (2016) PCRec [H.264 / 1080p-LQ] [EN]

  • Посетители, находящиеся в группе Гости, не могут оставлять комментарии в данной новости.
    Для авторских прав
    Вход на сайт
    Навигация
    Популярное

    Энди Уорнер | Краткие истории обычных вещей (2019) [PDF]

    (скачиваний: 20)
    Касия Везовски, Патрик Везовски | Я понимаю тебя без слов. Как читать людей по жестам и мимике (2020) [PDF]

    (скачиваний: 14)
    Воган Лин | Blender 2.79 Средний уровень: Краб Бот / Blender 2.79 Intermediate: Crab Bot (2017) PCRec [H.264 / 1080p-LQ] [EN]

    (скачиваний: 12)
    Воган Лин | Blender 2.79 Средний уровень: Sci Fi коридор / Blender 2.79 Intermediate: Sci Fi Corridor (2018) PCRec [H.264 / 1080p-LQ] [EN]

    (скачиваний: 11)
    Воган Лин | Blender 2.8 Продвинутый: Грузовой космический корабль / Blender 2.8 Advanced: Cargo Spaceship (2019) PCRec [H.264 / 1080p-LQ] [EN]

    (скачиваний: 10)
    Эми Морис | 13 привычек сильных духом людей (2019) [EPUB, PDF]

    (скачиваний: 8)
    С.П. Сапцов | Английский попроще. Фразовые глаголы (2020) [PDF]

    (скачиваний: 7)
    Олег Дивов и др. | Цифрономикон [сборник] (2014) [FB2] скачать через торрент бесплатно

    (скачиваний: 6)
    Михаил Савич | «Первый» [11 книг] (2019) [FB2]

    (скачиваний: 5)
    Ренсом Риггз | Собрание произведений [12 книг] (2011 - 2020) [FB2, EPUB]

    (скачиваний: 4)