Подписывайся на наш канал в Telegram https://t.me/torrentok и получи доступ к торрентам без ограничений!

[Skill.Im] Екатерина Нечипоренко | VBA для Excel. Курсы базовый, продвинутый и создание интерфейса (2019) PCRec торрент скачать бесплатно

[Skill.Im] Екатерина Нечипоренко | VBA для Excel. Курсы базовый, продвинутый и создание интерфейса (2019) PCRecАвтор: Екатерина Нечипоренко
Производство: Skill.Im
Жанр: MS Excel, VBA

Описание

Специально для тех, кто хочет решать более сложные задачи в Excel, мы подготовили интересный самоучитель, который будет полезен как начинающим, которые никогда не занимались программированием, так и людям, которые знакомы с Visual Basic, но хотят усовершенствовать свои знания.
В целом, наш самоучитель состоит из трех разделов: продвинутый, базовый и мастерский. Базовая часть будет полезна тем людям, которые не знакомы с программирования и никогда не писали программ, то есть – для чайников. Остальные этапы удовлетворять запросы более опытных пользователей.
Продолжительность: 04: 55: 54
Качество видео: PCRec
Видео: AVC/H.264, 1280x720, ~175 Kbps
Аудио: AAC, 2 ch, 113 Kbps
бщее
Полное имя : 1.Параметры безопасности Excel и файлов..mp4
Формат : MPEG-4
Профиль формата : Base Media
Идентификатор кодека : isom (isom/iso2/avc1/mp41)
Размер файла : 7, 24 Мбайт
Продолжительность : 3 м. 24 с.
Режим общего битрейта : Переменный
Общий поток : 297 Кбит/сек
Программа кодирования : Lavf57.41.100
Видео
Идентификатор : 1
Формат : AVC
Формат/Информация : Advanced Video Codec
Профиль формата : [email protected]
Настройки формата : CABAC/4 Ref Frames
Параметр CABAC формата : Да
Параметр RefFrames формата : 4 кадра
Идентификатор кодека : avc1
Идентификатор кодека/Информация : Advanced Video Coding
Продолжительность : 3 м. 24 с.
Битрейт : 175 Кбит/сек
Ширина : 1 280 пикселей
Высота : 720 пикселей
Соотношение сторон : 16: 9
Режим частоты кадров : Постоянный
Частота кадров : 29, 970 (29970/1000) кадров/сек
Цветовое пространство : YUV
Субдискретизация насыщенности : 4: 2: 0
Битовая глубина : 8 бит
Тип развёртки : Прогрессивная
Бит/(Пиксели*Кадры) : 0.006
Размер потока : 4, 27 Мбайт (59%)
Библиотека кодирования : x264 core 148
Настройки программы : cabac=1/ref=3/deblock=1: 0: 0/analyse=0x3: 0x113/me=hex/subme=7/psy=1/psy_rd=1.00: 0.00/mixed_ref=1/me_range=16/chroma_me=1/trellis=1/8x8dct=1/cqm=0/deadzone=21, 11/fast_pskip=1/chroma_qp_offset=-2/threads=3/lookahead_threads=1/sliced_threads=0/nr=0/decimate=1/interlaced=0/bluray_compat=0/constrained_intra=0/bframes=3/b_pyramid=2/b_adapt=1/b_bias=0/direct=1/weightb=1/open_gop=0/weightp=2/keyint=250/keyint_min=25/scenecut=40/intra_refresh=0/rc_lookahead=40/rc=crf/mbtree=1/crf=22.0/qcomp=0.60/qpmin=0/qpmax=69/qpstep=4/ip_ratio=1.40/aq=1: 1.00
Язык : English
Codec configuration box : avcC
Аудио
Идентификатор : 2
Формат : AAC LC
Формат/Информация : Advanced Audio Codec Low Complexity
Идентификатор кодека : mp4a-40-2
Продолжительность : 3 м. 24 с.
Duration_LastFrame : -16 мс.
Вид битрейта : Переменный
Битрейт : 113 Кбит/сек
Максимальный битрейт : 128 Кбит/сек
Каналы : 2 канала
Channel layout : L R
Частота : 44, 1 КГц
Частота кадров : 43, 066 кадра/сек (1024 SPF)
Метод сжатия : С потерями
Размер потока : 2, 76 Мбайт (38%)
Язык : English
Default : Да
Alternate group : 1
Скриншоты:


Время раздачи: с 10: 00 до 02: 00 (до появления первых 3-5 скачавших)

Другие торренты по теме:

  • Braid Skill - Prior (2015) [MP3|320 кб / с]<Groove Metal, Metalcore, Nu-Metal>
  • Age of Wushu Dynasty 4.0.0 Mod [Mana / No Skill Cooldown] [Ru / En]
  • Shadow Skill - Eigi / Искусство тени [1998, TV, 26 ep.] DVDRip raw +eng
  • Shadow Skill - Movie / Искусство тени OVA-2 [1996, OVA, 3 ep.] DVDRip raw +eng
  • Shadow Skill - Epilogue / Искусство тени OVA-1 [1995, OVA, 1 ep.] DVDRip raw +eng
  • Quan Zhi Gao Shou | Quanzhi Gaoshou | The King`s Avatar | Master of Skill | Аватар короля | Триумф онлайн: Аватар Короля [2017, TV] WEBRip 1080р raw+rus
  • Isekai Shihai no Skill Taker ~Zero kara Hajimeru Dorei Harem~ | Мировое господство: Создание гарема рабынь с нуля (2014 и т.д.) [6 томов] [Ранобэ] [Русский] [FB2] [incomplete]
  • Skill.im | MS Word 2016 [Полный курс] (2018) PCRec [H.264 / 720p-LQ]

  • Посетители, находящиеся в группе Гости, не могут оставлять комментарии в данной новости.
    Для авторских прав
    Вход на сайт
    Навигация
    Популярное

    Энди Уорнер | Краткие истории обычных вещей (2019) [PDF]

    (скачиваний: 21)
    Касия Везовски, Патрик Везовски | Я понимаю тебя без слов. Как читать людей по жестам и мимике (2020) [PDF]

    (скачиваний: 15)
    Джейсон Уилкс | Математика в огне. Нескучный неучебник (2020) [PDF]

    (скачиваний: 14)
    Воган Лин | Blender 2.79 Средний уровень: Краб Бот / Blender 2.79 Intermediate: Crab Bot (2017) PCRec [H.264 / 1080p-LQ] [EN]

    (скачиваний: 12)
    Воган Лин | Blender 2.79 Средний уровень: Sci Fi коридор / Blender 2.79 Intermediate: Sci Fi Corridor (2018) PCRec [H.264 / 1080p-LQ] [EN]

    (скачиваний: 11)
    Воган Лин | Blender 2.8 Продвинутый: Грузовой космический корабль / Blender 2.8 Advanced: Cargo Spaceship (2019) PCRec [H.264 / 1080p-LQ] [EN]

    (скачиваний: 10)
    Эми Морис | 13 привычек сильных духом людей (2019) [EPUB, PDF]

    (скачиваний: 9)
    И.В. Блохина и др. | Большая книга для каждого образованного человека. 10000 фактов, дат, событий (2018) [PDF]

    (скачиваний: 8)
    Андреас Штипплер, Норберт Регитниг-Тиллиан | Мышцы. Как у вас дела (2020) [FB2]

    (скачиваний: 7)
    Олег Дивов и др. | Цифрономикон [сборник] (2014) [FB2] скачать через торрент бесплатно

    (скачиваний: 6)