Подписывайся на наш канал в Telegram https://t.me/torrentok и получи доступ к торрентам без ограничений!

[Skill.Im] Екатерина Нечипоренко | MS Excel 2013 / 2016: базовый курс (2019) PCRec торрент скачать бесплатно

[Skill.Im] Екатерина Нечипоренко | MS Excel 2013 / 2016: базовый курс (2019) PCRecАвтор: Екатерина Нечипоренко
Производство: Skill.Im
Жанр: MS Excel

Описание

Если вы начинающий пользователь, который только что установил себе пакет программ Microsoft Office, и вы хотите профессионально научиться пользоваться таблицами, то базовый курс – это то, что вам нужно. В нем мы обучим вас основам работы в программе.
Также, по мере обучения работе в программе, мы предлагаем вам проходить тематические тесты и ситуативные задания. Если с тестами все понятней, то о заданиях чуть подробней.
Базируясь на знаниях, которые вы получили из курса, мы предлагаем вам выполнить ряд действий, по решению интересной и жизненной задачи в Microsoft Excel. При этом, вам даже не придется выходить из сайта.
Продолжительность: 03: 43: 33
Качество видео: PCRec
Видео: AVC/H.264, 1280x720, ~141 Kbps
Аудио: AAC, 2 ch, 158 Kbps
Общее
Полное имя : 8. Ввод текста, числа и даты.mp4
Формат : MPEG-4
Профиль формата : Base Media/Version 2
Идентификатор кодека : mp42 (isom/mp42)
Размер файла : 7, 63 Мбайт
Продолжительность : 3 м. 32 с.
Режим общего битрейта : Переменный
Общий поток : 301 Кбит/сек
Исполнитель : Skill.im
Дата кодирования : UTC 2014-05-01 10: 39: 49
Дата пометки : UTC 2014-05-01 10: 39: 49
Видео
Идентификатор : 1
Формат : AVC
Формат/Информация : Advanced Video Codec
Профиль формата : [email protected]
Настройки формата : CABAC/3 Ref Frames
Параметр CABAC формата : Да
Параметр RefFrames формата : 3 кадра
Параметр GOP формата : M=1, N=75
Идентификатор кодека : avc1
Идентификатор кодека/Информация : Advanced Video Coding
Продолжительность : 3 м. 32 с.
Продолжительность оригинала : 3 м. 32 с.
Битрейт : 141 Кбит/сек
Ширина : 1 280 пикселей
Высота : 720 пикселей
Соотношение сторон : 16: 9
Режим частоты кадров : Переменный
Частота кадров : 15, 000 кадров/сек
Минимальная частота кадров : 15, 000 кадров/сек
Максимальная частота кадров : 15, 008 кадров/сек
Цветовое пространство : YUV
Субдискретизация насыщенности : 4: 2: 0
Битовая глубина : 8 бит
Тип развёртки : Прогрессивная
Бит/(Пиксели*Кадры) : 0.010
Размер потока : 3, 58 Мбайт (47%)
Размер потока оригинала : 3, 58 Мбайт (47%)
Язык : English
Дата кодирования : UTC 2014-05-01 10: 39: 50
Дата пометки : UTC 2014-05-01 10: 39: 50
Цветовой диапазон : Limited
Основные цвета : BT.709
Характеристики трансфера : BT.709
Коэффициенты матрицы : BT.709
mdhd_Duration : 212667
Codec configuration box : avcC
Аудио
Идентификатор : 2
Формат : AAC LC
Формат/Информация : Advanced Audio Codec Low Complexity
Идентификатор кодека : mp4a-40-2
Продолжительность : 3 м. 32 с.
Продолжительность оригинала : 3 м. 32 с.
Вид битрейта : Переменный
Битрейт : 158 Кбит/сек
Максимальный битрейт : 341 Кбит/сек
Каналы : 2 канала
Channel layout : L R
Частота : 44, 1 КГц
Частота кадров : 43, 066 кадра/сек (1024 SPF)
Метод сжатия : С потерями
Размер потока : 4, 00 Мбайт (52%)
Размер потока оригинала : 4, 00 Мбайт (52%)
Язык : English
Дата кодирования : UTC 2014-05-01 10: 39: 50
Дата пометки : UTC 2014-05-01 10: 39: 50
mdhd_Duration : 212672

Другие торренты по теме:

  • Braid Skill - Prior (2015) [MP3|320 кб / с]<Groove Metal, Metalcore, Nu-Metal>
  • Age of Wushu Dynasty 4.0.0 Mod [Mana / No Skill Cooldown] [Ru / En]
  • Shadow Skill - Eigi / Искусство тени [1998, TV, 26 ep.] DVDRip raw +eng
  • Shadow Skill - Movie / Искусство тени OVA-2 [1996, OVA, 3 ep.] DVDRip raw +eng
  • Shadow Skill - Epilogue / Искусство тени OVA-1 [1995, OVA, 1 ep.] DVDRip raw +eng
  • Quan Zhi Gao Shou | Quanzhi Gaoshou | The King`s Avatar | Master of Skill | Аватар короля | Триумф онлайн: Аватар Короля [2017, TV] WEBRip 1080р raw+rus
  • Isekai Shihai no Skill Taker ~Zero kara Hajimeru Dorei Harem~ | Мировое господство: Создание гарема рабынь с нуля (2014 и т.д.) [6 томов] [Ранобэ] [Русский] [FB2] [incomplete]
  • Skill.im | MS Word 2016 [Полный курс] (2018) PCRec [H.264 / 720p-LQ]

  • Посетители, находящиеся в группе Гости, не могут оставлять комментарии в данной новости.
    Для авторских прав
    Вход на сайт
    Навигация
    Популярное

    Энди Уорнер | Краткие истории обычных вещей (2019) [PDF]

    (скачиваний: 22)
    Касия Везовски, Патрик Везовски | Я понимаю тебя без слов. Как читать людей по жестам и мимике (2020) [PDF]

    (скачиваний: 18)
    Джейсон Уилкс | Математика в огне. Нескучный неучебник (2020) [PDF]

    (скачиваний: 14)
    Андреас Штипплер, Норберт Регитниг-Тиллиан | Мышцы. Как у вас дела (2020) [FB2]

    (скачиваний: 12)
    Воган Лин | Blender 2.79 Средний уровень: Sci Fi коридор / Blender 2.79 Intermediate: Sci Fi Corridor (2018) PCRec [H.264 / 1080p-LQ] [EN]

    (скачиваний: 11)
    Воган Лин | Blender 2.8 Продвинутый: Грузовой космический корабль / Blender 2.8 Advanced: Cargo Spaceship (2019) PCRec [H.264 / 1080p-LQ] [EN]

    (скачиваний: 10)
    Елена Перелыгина | НЛП: манипуляция или ключ к успеху (2020) [EPUB]

    (скачиваний: 9)
    Наоми Вульф | Вагина. Новая история женской сексуальности (2018) [FB2]

    (скачиваний: 8)
    Эрик Берн | Игры, в которые играют люди. Люди, которые играют в игры (сборник) (2017) [FB2]

    (скачиваний: 7)
    Марк Уолинн | Это началось не с тебя (2020) [FB2]

    (скачиваний: 6)