Подписывайся на наш канал в Telegram https://t.me/torrentok и получи доступ к торрентам без ограничений!

Специалист | Инструментарий бизнес - аналитика: практикум (2019) PCRec торрент скачать бесплатно

Специалист | Инструментарий бизнес - аналитика: практикум (2019) PCRecАвтор: Специалист
Производство: Казакова Светлана Васильевна
Жанр: Бизнес

Описание

Данный курс соответствует требованиям Профессионального стандарта Бизнес-аналитик УТВЕРЖДЕННОГО приказом Министерства труда и социальной защиты РФ от 25 сентября 2018 года N 592н (в редакции, введенной в действие с 20 января 2019 года приказом Минтруда России от 14 декабря 2018 года N 807н.)
Международный Институт Бизнес-Анализа (IIBA) определяет бизнес-анализ как практику создания условий для осуществления организационных изменений путем определения потребностей и предложения решений, которые предполагают выгоду для акционеров.
Продолжительность: 16: 00: 00
Качество видео: PCRec
Язык озвучки: Русский
Видео: AVC/H.264, [email protected], ~687 Kbps
Аудио: AAC, 2 ch, 192 Kbps
Общее
Полное имя : E: lessonsспециалистСпециалист Бизнес-анализ практикумДень 21.mp4
Формат : MPEG-4
Профиль формата : Base Media
Идентификатор кодека : isom (isom/iso2/avc1/mp41)
Размер файла : 526 Мбайт
Продолжительность : 1 ч. 23 м.
Общий поток : 886 Кбит/сек
Программа кодирования : Lavf57.25.100
Видео
Идентификатор : 1
Формат : AVC
Формат/Информация : Advanced Video Codec
Профиль формата : [email protected]
Настройки формата : 1 Ref Frames
Параметр CABAC формата : Нет
Параметр RefFrames формата : 1 кадр
Идентификатор кодека : avc1
Идентификатор кодека/Информация : Advanced Video Coding
Продолжительность : 1 ч. 23 м.
Битрейт : 687 Кбит/сек
Ширина : 1 944 пикселя
Высота : 1 436 пикселей
Соотношение сторон : 4: 3
Режим частоты кадров : Переменный
Частота кадров : 29, 879 кадров/сек
Минимальная частота кадров : 2, 000 кадра/сек
Максимальная частота кадров : 30, 000 кадров/сек
Цветовое пространство : YUV
Субдискретизация насыщенности : 4: 2: 0
Битовая глубина : 8 бит
Тип развёртки : Прогрессивная
Бит/(Пиксели*Кадры) : 0.008
Размер потока : 408 Мбайт (78%)
Codec configuration box : avcC
Аудио
Идентификатор : 2
Формат : AAC LC
Формат/Информация : Advanced Audio Codec Low Complexity
Идентификатор кодека : mp4a-40-2
Продолжительность : 1 ч. 23 м.
Вид битрейта : Постоянный
Битрейт : 192 Кбит/сек
Каналы : 2 канала
Channel layout : L R
Частота : 44, 1 КГц
Частота кадров : 43, 066 кадра/сек (1024 SPF)
Метод сжатия : С потерями
Размер потока : 114 Мбайт (22%)
Default : Да
Alternate group : 1

Другие торренты по теме:

  • Специалист | Специалист по контекстной рекламе: подготовка по специальности (2015) PCRec скачать через торрент бесплатно
  • Специалист | Специалист по Adobe Photoshop СС (2015) PCRec [H.264] скачать через торрент бесплатно
  • Специалист | Русский без ошибок (2014) PCRec
  • Специалист | Основы экономики для руководителей, менеджеров и специалистов (2014) PCRec скачать через торрент бесплатно
  • Специалист | Google - Universal Analytics и Яндекс Метрика (2014) PCRec
  • Специалист | Основы управленческого учета и бюджетирование (2013) PCRec скачать через торрент бесплатно
  • Специалист | MySQL 5. Проектирование и создание баз данных для web (2013) PCRec скачать через торрент бесплатно
  • Специалист | Курс М6236 (М2793) Внедрение и поддержка сервисов отчетов Microsoft SQL Server 2008 R2 / 2005 (2011) PCRec

  • Посетители, находящиеся в группе Гости, не могут оставлять комментарии в данной новости.
    Для авторских прав
    Вход на сайт
    Навигация
    Популярное

    Энди Уорнер | Краткие истории обычных вещей (2019) [PDF]

    (скачиваний: 21)
    Касия Везовски, Патрик Везовски | Я понимаю тебя без слов. Как читать людей по жестам и мимике (2020) [PDF]

    (скачиваний: 16)
    Джейсон Уилкс | Математика в огне. Нескучный неучебник (2020) [PDF]

    (скачиваний: 14)
    Воган Лин | Blender 2.79 Средний уровень: Краб Бот / Blender 2.79 Intermediate: Crab Bot (2017) PCRec [H.264 / 1080p-LQ] [EN]

    (скачиваний: 12)
    Воган Лин | Blender 2.79 Средний уровень: Sci Fi коридор / Blender 2.79 Intermediate: Sci Fi Corridor (2018) PCRec [H.264 / 1080p-LQ] [EN]

    (скачиваний: 11)
    Воган Лин | Blender 2.8 Продвинутый: Грузовой космический корабль / Blender 2.8 Advanced: Cargo Spaceship (2019) PCRec [H.264 / 1080p-LQ] [EN]

    (скачиваний: 10)
    Андреас Штипплер, Норберт Регитниг-Тиллиан | Мышцы. Как у вас дела (2020) [FB2]

    (скачиваний: 9)
    Михаил Савич | «Первый» [11 книг] (2019) [FB2]

    (скачиваний: 8)
    Ренсом Риггз | Цикл «Мисс Перегрин» [6 книг] (2012-2020) [FB2] [Обновляемая]

    (скачиваний: 7)
    Вадим Панов | Зандр (2016) [FB2]

    (скачиваний: 6)