Подписывайся на наш канал в Telegram https://t.me/torrentok и получи доступ к торрентам без ограничений!

Специалист | Microsoft Excel 2016 / 2013. Уровень 8. Углублённое изучение DAX и Excel PowerPivot (2016) PCRec торрент скачать бесплатно

Специалист | Microsoft Excel 2016 / 2013. Уровень 8. Углублённое изучение DAX и Excel PowerPivot (2016) PCRecАвтор: Фёдор Самородов
Производство: Специалист
Жанр: MS Excel, Power BI, DAX

Описание

Курс предназначен для аналитиков и разработчиков отчетов, продвинутых пользователей Excel.
На занятиях вас ждет глубокое погружение в DAX. Вы подробно изучите работу со связанными таблицами и рассмотрите практические сценарии на DAX. Пройдя обучение, вы сможете создавать сложные модели PowerPivot и будете свободно владеть языком DAX.
Продолжительность: 15: 56: 49
Качество видео: PCRec
Видео: WMV1, 1364x728, ~164 Kbps
Аудио: WMA, 2 ch, 96 Kbps
Общее
Полное имя : 020. Постановка задачи.wmv
Формат : Windows Media
Размер файла : 12, 6 Мбайт
Продолжительность : 6 м. 39 с.
Режим общего битрейта : Переменный
Общий поток : 265 Кбит/сек
Максимальный общий битрейт : 894 Кбит/сек
Дата кодирования : UTC 2018-12-06 19: 49: 56.284
FSCSettings : 14
Видео
Идентификатор : 2
Формат : WMV1
Идентификатор кодека : WMV1
Идентификатор кодека/Информация : Windows Media Video 7
Описание кодека : Windows Media Video V7
Продолжительность : 6 м. 39 с.
Вид битрейта : Переменный
Битрейт : 164 Кбит/сек
Ширина : 1 364 пикселя
Высота : 728 пикселей
Соотношение сторон : 1, 85: 1
Частота кадров : 10, 000 кадров/сек
Битовая глубина : 8 бит
Бит/(Пиксели*Кадры) : 0.017
Размер потока : 7, 84 Мбайт (62%)
Язык : English (United States)
Аудио
Идентификатор : 1
Формат : WMA
Версия формата : Version 2
Идентификатор кодека : 161
Идентификатор кодека/Информация : Windows Media Audio
Описание кодека : Windows Media Audio 9.2 - 96 kbps, 44 kHz, stereo 1-pass CBR
Продолжительность : 6 м. 39 с.
Вид битрейта : Постоянный
Битрейт : 96, 0 Кбит/сек
Каналы : 2 канала
Частота : 44, 1 КГц
Битовая глубина : 16 бит
Размер потока : 4, 57 Мбайт (36%)
Язык : English (United States)
Скриншоты:


Время раздачи: с 10: 00 до 02: 00 (до появления первых 3-5 скачавших)

Другие торренты по теме:

  • Специалист | Microsoft Access 2013 / 2010 / 2007 [Уровни 1-3] (2014) PCRec скачать через торрент бесплатно
  • Специалист | Microsoft Excel 2013 / 2010. Уровень 3. Анализ и визуализация данных (2014) PCRec
  • Специалист | Microsoft Word 2016 / 2013. Уровень 1. Работа с Word 2016 / 2013 (2014, 2017) PCRec
  • Специалист | Microsoft Word 2010-2013. Уровень 2. Расширенные возможности (2014) PCRec [H.264]
  • Специалист | Microsoft PowerPoint 2010-2013 [уровень 1,2,3] (2013) PCRec [H.264]
  • Специалист | Microsoft Power BI Desktop для пользователей (2020) PCRec
  • Специалист | Курс М6236 (М2793) Внедрение и поддержка сервисов отчетов Microsoft SQL Server 2008 R2 / 2005 (2011) PCRec
  • Специалист | Курс М6234 (М2791) Внедрение и поддержка аналитических сервисов Microsoft SQL Server 2008 R2 / 2005 (2011) PCRec

  • Посетители, находящиеся в группе Гости, не могут оставлять комментарии в данной новости.
    Для авторских прав
    Вход на сайт
    Навигация
    Популярное

    Энди Уорнер | Краткие истории обычных вещей (2019) [PDF]

    (скачиваний: 22)
    Касия Везовски, Патрик Везовски | Я понимаю тебя без слов. Как читать людей по жестам и мимике (2020) [PDF]

    (скачиваний: 18)
    Джейсон Уилкс | Математика в огне. Нескучный неучебник (2020) [PDF]

    (скачиваний: 14)
    Андреас Штипплер, Норберт Регитниг-Тиллиан | Мышцы. Как у вас дела (2020) [FB2]

    (скачиваний: 12)
    Воган Лин | Blender 2.79 Средний уровень: Sci Fi коридор / Blender 2.79 Intermediate: Sci Fi Corridor (2018) PCRec [H.264 / 1080p-LQ] [EN]

    (скачиваний: 11)
    Воган Лин | Blender 2.8 Продвинутый: Грузовой космический корабль / Blender 2.8 Advanced: Cargo Spaceship (2019) PCRec [H.264 / 1080p-LQ] [EN]

    (скачиваний: 10)
    Елена Перелыгина | НЛП: манипуляция или ключ к успеху (2020) [EPUB]

    (скачиваний: 9)
    Наоми Вульф | Вагина. Новая история женской сексуальности (2018) [FB2]

    (скачиваний: 8)
    Эрик Берн | Игры, в которые играют люди. Люди, которые играют в игры (сборник) (2017) [FB2]

    (скачиваний: 7)
    Марк Уолинн | Это началось не с тебя (2020) [FB2]

    (скачиваний: 6)