Подписывайся на наш канал в Telegram https://t.me/torrentok и получи доступ к торрентам без ограничений!

CG Fast Track | Процедурные шейдеры в Blender 2.90 / Procedural Shader Networks in Blender 2.90 (2020) PCRec [EN] торрент скачать бесплатно

CG Fast Track | Процедурные шейдеры в Blender 2.90 / Procedural Shader Networks in Blender 2.90 (2020) PCRec [EN]Автор: CG Fast Track
Производство: CG Fast Track
Жанр: 3D моделирование, Шейдеры

Описание

Создание сложных шейдеров для многослойных материалов в Blender 2.90.
В этом курсе вы научитесь создавать такие материалы как металл, снег, ткань. В завершении мы применим материалы для модели бронированной турели без создания UV-развертки, используя трипланарную проекцию.
Продолжительность: 02: 26: 20
Качество видео: PCRec
Перевод: Отсутствует
Язык озвучки: Английский
Видео: AVC/H.264, 1440х1080, ~1441 Kbps
Аудио: AAC, 2 ch, 62.7 Kbps, CBR
General
Complete name : C: TorrentsCGFastTrack - Procedural Shader Networks in Blender 2.90 (2020)1. Part 1 - Overview5. Scene Setup.mp4
Format : MPEG-4
Format profile : Base Media
Codec ID : isom (isom/iso2/avc1/mp41)
File size : 65.1 MiB
Duration : 6 min 1 s
Overall bit rate : 1 510 kb/s
Writing application : Lavf58.29.100
Video
ID : 1
Format : AVC
Format/Info : Advanced Video Codec
Format profile : High@L4
Format settings : CABAC/5 Ref Frames
Format settings, CABAC : Yes
Format settings, Reference : 5 frames
Codec ID : avc1
Codec ID/Info : Advanced Video Coding
Duration : 6 min 1 s
Bit rate : 1 441 kb/s
Width : 1 440 pixels
Height : 1 080 pixels
Display aspect ratio : 4: 3
Frame rate mode : Constant
Frame rate : 30.000 FPS
Color space : YUV
Chroma subsampling : 4: 2: 0
Bit depth : 8 bits
Scan type : Progressive
Bits/(Pixel*Frame) : 0.031
Stream size : 62.1 MiB (95%)
Writing library : x264 core 160 r10 22fcbe1
Encoding settings : cabac=1/ref=5/deblock=1: 0: 0/analyse=0x3: 0x113/me=hex/subme=8/psy=1/psy_rd=1.00: 0.00/mixed_ref=1/me_range=16/chroma_me=1/trellis=2/8x8dct=1/cqm=0/deadzone=21, 11/fast_pskip=1/chroma_qp_offset=-2/threads=34/lookahead_threads=5/sliced_threads=0/nr=0/decimate=1/interlaced=0/bluray_compat=0/stitchable=1/constrained_intra=0/bframes=3/b_pyramid=2/b_adapt=2/b_bias=0/direct=3/weightb=1/open_gop=0/weightp=2/keyint=infinite/keyint_min=30/scenecut=40/intra_refresh=0/rc_lookahead=50/rc=crf/mbtree=1/crf=20.0/qcomp=0.60/qpmin=5/qpmax=69/qpstep=4/vbv_maxrate=5500/vbv_bufsize=15000/crf_max=0.0/nal_hrd=none/filler=0/ip_ratio=1.40/aq=1: 1.00
Color range : Limited
Color primaries : BT.709
Transfer characteristics : BT.709
Matrix coefficients : BT.709
Codec configuration box : avcC
Audio
ID : 2
Format : AAC LC SBR
Format/Info : Advanced Audio Codec Low Complexity with Spectral Band Replication
Commercial name : HE-AAC
Format settings : Explicit
Codec ID : mp4a-40-2
Duration : 6 min 1 s
Bit rate mode : Constant
Bit rate : 62.7 kb/s
Channel(s) : 2 channels
Channel layout : L R
Sampling rate : 48.0 kHz
Frame rate : 23.438 FPS (2048 SPF)
Compression mode : Lossy
Stream size : 2.70 MiB (4%)
Default : Yes
Alternate group : 1

Другие торренты по теме:

  • Прирожденный гонщик 2 / Born to Race: Fast Track (2014) HDRip [VO]
  • Прирожденный гонщик 2 / Born to Race: Fast Track (2014) BDRip [1080p] [VO]
  • Мощь. Скоростные поезда / Railpower. The Fast Track (2017) HDTVRip [H.264 / 1080p-LQ]
  • Fabien Potencier | Symfony 5. The Fast Track / Фабьен Потенсье | Symfony 5. Быстрый старт (2020) [PDF] [RU, EN]
  • CG Fast Track | Полигональное моделирование в Blender 2.83 части 1-3 / Polygon Modeling Boot Camp Vol. 1-3 (2020) PCRec [EN]

  • Посетители, находящиеся в группе Гости, не могут оставлять комментарии в данной новости.
    Для авторских прав
    Вход на сайт
    Навигация
    Популярное

    OTUS | Python QA Engineer (2019) PCRec [H.264]

    (скачиваний: 34)
    Книжная серия | Жизнь и счастье [9 книг] (2019-2020) [EPUB]

    (скачиваний: 27)
    Либби Уивер | Полезная книга о лишнем и вредном. Как прекратить бороться с собой, понять свой организм и начать питаться правильно (2021) [EPUB]

    (скачиваний: 18)
    Кенъити Сакума | Метод Сакума. Японская система формирования здорового мышечного каркаса за 5 минут в день (2020) [PDF]

    (скачиваний: 16)
    Томас Дерри, Тревор Уильямс | Краткая история технологий (2019) [PDF]

    (скачиваний: 15)
    [Udemy] Logus Online | Английский для начинающих: интенсивный разговорный курс | English for Beginners: Intensive Spoken English Course (2018) [En / En Sub]

    (скачиваний: 14)
    А.А. Гладкий | Как быстро восстановить потерянные компьютерные данные. Подробное руководство по спасению информации (2020) [PDF]

    (скачиваний: 13)
    Книжная серия | «Пешком по городу» [4 книги] (2018-2020) [FB2, PDF]

    (скачиваний: 12)
    Александр Свияш | Как правильно менять себя и быть успешным в любой ситуации (2020) [PDF]

    (скачиваний: 11)
    Андрей Мусалов | Хроники Даманского (2019) [FB2]

    (скачиваний: 10)