Подписывайся на наш канал в Telegram https://t.me/torrentok и получи доступ к торрентам без ограничений!

Igor Staritsin | Создание эпического мэтт-пейнт шота. Продвинутые техники с Игорем Старициным / Create an Epic Matte Painting Shot Advanced Techniques (2015) PCRec [En, Ru] торрент скачать бесплатно

Igor Staritsin | Создание эпического мэтт-пейнт шота. Продвинутые техники с Игорем Старициным / Create an Epic Matte Painting Shot Advanced Techniques (2015) PCRec [En, Ru]Автор: Igor Staritsin
Производство: The Gnomon Workshop
Жанр: Digital Art

Описание

В этой курсе Игорь Старицын проведет вас через весь процесс создания эпического мэт-пэйнт шота. Он начнет с того, что нарисует несколько эскизов, объясняя при этом фундаментальные принципы искусства создания удачного окружения. Затем Игорь начинает создавать композиционный эскиз, создавая настроение. Затем используется Maya для создания базовой модели для архитектурных фрагментов, а затем процесс происходит в Photoshop для того, чтобы создать высокодетализированное окружение, используя широкий спектр продвинутых методов работы.В конце используется Nuke для настройки проекций камеры для создания окончательной композиции. В процессе Игорь раскроет некоторые аспекты того, что же включает в себя понятие успешного художника мэт-пэйнтера, то, что должно быть принято во внимание при рассмотрении пейзажей и чего следует избегать, чтобы гарантировать, что картина станет востребована аудиторией. Он также поделится техническими аспектами работы мэт-пэйнтера и продемонстрирует, как использовать их для того, чтобы быть более эффективным. Это подробная лекция и демонстрация работы, ведущего отраслевого художника, поможет художникам всех уровней, заинтересованных в достижении профессиональных результатов в своей работе.Продолжительность: 07: 52: 19
Качество видео: PCRec
Видео: AVC/H.264, 1600х900, ~2000 Kbps
Аудио: AAC, 2 ch, 256 Kbps
Общее
Полное имя : O: The Gnomon Workshop Create an Epic Matte Painting Shot Advanced Techniques with Igor Staritsin RUS2. Compositional Study.mp4
Формат : MPEG-4
Профиль формата : Base Media
Идентификатор кодека : isom (isom/iso2/avc1/mp41)
Размер файла : 220 Мбайт
Продолжительность : 16 м. 24 с.
Общий поток : 1876 Кбит/сек
Видео
Идентификатор : 1
Формат : AVC
Формат/Информация : Advanced Video Codec
Профиль формата : Main@L4
Настройки формата : CABAC/4 Ref Frames
Параметр CABAC формата : Да
Параметр RefFrames формата : 4 кадра
Идентификатор кодека : avc1
Идентификатор кодека/Информация : Advanced Video Coding
Продолжительность : 16 м. 24 с.
Битрейт : 1500 Кбит/сек
Ширина : 1600 пикселей
Высота : 898 пикселей
Соотношение сторон : 16: 9
Режим частоты кадров : Переменный
Частота кадров : 15, 000 кадров/сек
Минимальная частота кадров : 14, 927 кадров/сек
Максимальная частота кадров : 15, 148 кадров/сек
Цветовое пространство : YUV
Субдискретизация насыщенности : 4: 2: 0
Битовая глубина : 8 бит
Тип развёртки : Прогрессивная
Бит/(Пиксели*Кадры) : 0.070
Размер потока : 176 Мбайт (80%)
Библиотека кодирования : x264 core 142 r2479 dd79a61
Настройки программы : cabac=1/ref=1/deblock=1: 0: 0/analyse=0x1: 0x111/me=hex/subme=2/psy=1/psy_rd=1.00: 0.00/mixed_ref=0/me_range=16/chroma_me=1/trellis=0/8x8dct=0/cqm=0/deadzone=21, 11/fast_pskip=1/chroma_qp_offset=0/threads=12/lookahead_threads=4/sliced_threads=0/nr=0/decimate=1/interlaced=0/bluray_compat=0/constrained_intra=0/bframes=3/b_pyramid=2/b_adapt=1/b_bias=0/direct=1/weightb=1/open_gop=0/weightp=1/keyint=150/keyint_min=15/scenecut=40/intra_refresh=0/rc_lookahead=10/rc=abr/mbtree=1/bitrate=1500/ratetol=1.0/qcomp=0.60/qpmin=0/qpmax=69/qpstep=4/vbv_maxrate=20000/vbv_bufsize=25000/nal_hrd=none/filler=0/ip_ratio=1.40/aq=1: 1.00
Язык : English
Цветовой диапазон : Limited
Основные цвета : BT.709
Характеристики трансфера : BT.709
Коэффициенты матрицы : BT.709
Аудио #1
Идентификатор : 2
Формат : AAC
Формат/Информация : Advanced Audio Codec
Профиль формата : LC
Идентификатор кодека : mp4a-40-2
Продолжительность : 16 м. 23 с.
Вид битрейта : Постоянный
Битрейт : 108 Кбит/сек
Каналы : 2 канала
Channel(s)_Original : 1 канал
Расположение каналов : Front: C
Частота : 22, 05 КГц
Частота кадров : 21, 533 кадра/сек (1024 SPF)
Метод сжатия : С потерями
Размер потока : 12, 7 Мбайт (6%)
Язык : Russian
Default : Нет
AlternateGroup/String : 1
Аудио #2
Идентификатор : 3
Формат : MPEG Audio
Версия формата : Version 1
Профиль формата : Layer 3
Настройки формата : Joint stereo
Идентификатор кодека : mp4a-6B
Продолжительность : 16 м. 23 с.
Вид битрейта : Постоянный
Битрейт : 256 Кбит/сек
Каналы : 2 канала
Частота : 44, 1 КГц
Метод сжатия : С потерями
Размер потока : 30, 0 Мбайт (14%)
Язык : Russian
Default : Да
AlternateGroup/String : 1
Скриншоты:


Время раздачи: с 8: 00 до 3: 00 (до появления первых 3-5 скачавших)

Другие торренты по теме:

  • Igor Cold (Igor Dyachenko) - The Crying Room (2014) [FLAC|Lossless|WEB-DL|tracks] <Electronica, Downtempo, Ambient>
  • Igor Butman (Игорь Бутман) - Falling Out (1993) [APE|Lossless]<Jazz, Post-Bop, Mainstream Jazz> скачать через торрент бесплатно
  • Igor Presnyakov (Игорь Пресняков) - Acoustic Rock Ballad Covers (2011) [FLAC|Lossless|WEB-DL]<Instrumental, Acoustic Guitar> скачать через торрент бесплатно
  • David & Igor Oistrakh - Bach: Violinkonzerte (BWV 1041 / 42 / 43), Vivaldi: Concerto Grosso (Op.3 Nr.8) 1962 [FLAC|Lossless|tracks] <Classical, Concerto>
  • Borodin / А.Бородин - Prince Igor / Князь Игорь (2001) 3 CD, Disc Set [APE|Lossless|image + .cue] <Opera>
  • Patrick Doyle - Igor (2008) [MP3|320 Kbps] <Score>
  • Igor Butman, Eddie Gomez, Andrei Kondakov, Lenny White - Jazz 4х4 (1997) Союз[FLAC|Lossless|tracks + .cue] <Post-Bop, Mainstream Jazz>
  • Igor & The Red Elvises - She Works For KGB (2017) [MP3|320 Kbps] <Rockabilly, RocknRoll>

  • Посетители, находящиеся в группе Гости, не могут оставлять комментарии в данной новости.
    Для авторских прав
    Вход на сайт
    Навигация
    Популярное

    OTUS | Python QA Engineer (2019) PCRec [H.264]

    (скачиваний: 34)
    Книжная серия | Жизнь и счастье [9 книг] (2019-2020) [EPUB]

    (скачиваний: 27)
    Либби Уивер | Полезная книга о лишнем и вредном. Как прекратить бороться с собой, понять свой организм и начать питаться правильно (2021) [EPUB]

    (скачиваний: 18)
    Кенъити Сакума | Метод Сакума. Японская система формирования здорового мышечного каркаса за 5 минут в день (2020) [PDF]

    (скачиваний: 16)
    Томас Дерри, Тревор Уильямс | Краткая история технологий (2019) [PDF]

    (скачиваний: 15)
    [Udemy] Logus Online | Английский для начинающих: интенсивный разговорный курс | English for Beginners: Intensive Spoken English Course (2018) [En / En Sub]

    (скачиваний: 14)
    А.А. Гладкий | Как быстро восстановить потерянные компьютерные данные. Подробное руководство по спасению информации (2020) [PDF]

    (скачиваний: 13)
    Книжная серия | «Пешком по городу» [4 книги] (2018-2020) [FB2, PDF]

    (скачиваний: 12)
    Александр Свияш | Как правильно менять себя и быть успешным в любой ситуации (2020) [PDF]

    (скачиваний: 11)
    Андрей Мусалов | Хроники Даманского (2019) [FB2]

    (скачиваний: 10)