Подписывайся на наш канал в Telegram https://t.me/torrentok и получи доступ к торрентам без ограничений!

Kurt Jones | Композиция в творчестве / Composition for the Creative Artist (2013) PCRec [En, Ru] торрент скачать бесплатно

Kurt Jones | Композиция в творчестве / Composition for the Creative Artist (2013) PCRec [En, Ru]Автор: Kurt Jones
Производство: Digital Tutors
Жанр: Рисование

Описание

Обучение мы начнем с того, что рассмотрим, что такое композиция и как можно использовать расположение элементов в живописи, фотографии или скульптуре для того, чтобы управлять взглядом зрителя. Затем я расскажу вам об основных типах композиции. В каждом занятии мы рассмотрим несколько произведений исскуства для того, чтобы увидеть, как композиция используется для вовлечения читателя в художественный мир.Занятия в конце курса посвящены созданию рисунков на основе изученного материала и наших собственных композиций. Усвоив и разобравшись в различных типах композиции, вы сможете создавать сильные и интересные работы, которые будут привлекать и будоражить внимание зрителей.Продолжительность: 02: 18: 55
Качество видео: PCRec
Язык озвучки: Английский, Русский
Видео: AVC/H.264, 1280х720, ~1000 Kbps
Аудио: AAC, 2 ch, 320 Kbps
Общее
Полное имя : O: Digital Tutors Composition for the Creative Artist RUS2. Movement in composition.mp4
Формат : MPEG-4
Профиль формата : Base Media
Идентификатор кодека : isom (isom/iso2/avc1/mp41)
Размер файла : 69, 9 Мбайт
Продолжительность : 11 м. 12 с.
Общий поток : 872 Кбит/сек
Видео
Идентификатор : 1
Формат : AVC
Формат/Информация : Advanced Video Codec
Профиль формата : High@L4.2
Настройки формата : CABAC/4 Ref Frames
Параметр CABAC формата : Да
Параметр RefFrames формата : 4 кадра
Идентификатор кодека : avc1
Идентификатор кодека/Информация : Advanced Video Coding
Продолжительность : 11 м. 12 с.
Битрейт : 212 Кбит/сек
Ширина : 1280 пикселей
Высота : 720 пикселей
Соотношение сторон : 16: 9
Режим частоты кадров : Постоянный
Частота кадров : 15, 000 кадров/сек
Цветовое пространство : YUV
Субдискретизация насыщенности : 4: 2: 0
Битовая глубина : 8 бит
Тип развёртки : Прогрессивная
Бит/(Пиксели*Кадры) : 0.002
Размер потока : 17, 0 Мбайт (24%)
Библиотека кодирования : x264 core 157 r2958 57baac4
Настройки программы : cabac=1/ref=3/deblock=1: -2: -2/analyse=0x3: 0x133/me=hex/subme=7/psy=1/psy_rd=1.00: 0.20/mixed_ref=1/me_range=16/chroma_me=1/trellis=1/8x8dct=1/cqm=0/deadzone=21, 11/fast_pskip=1/chroma_qp_offset=-3/threads=9/lookahead_threads=1/sliced_threads=0/nr=0/decimate=1/interlaced=0/bluray_compat=0/constrained_intra=0/bframes=3/b_pyramid=2/b_adapt=2/b_bias=0/direct=3/weightb=1/open_gop=0/weightp=2/keyint=1200/keyint_min=120/scenecut=40/intra_refresh=0/rc_lookahead=40/rc=crf/mbtree=1/crf=21.0/qcomp=0.60/qpmin=0/qpmax=69/qpstep=4/ip_ratio=1.40/aq=1: 1.00
Язык : English
Аудио #1
Идентификатор : 2
Формат : AAC
Формат/Информация : Advanced Audio Codec
Профиль формата : LC
Идентификатор кодека : mp4a-40-2
Продолжительность : 11 м. 12 с.
Вид битрейта : Постоянный
Битрейт : 320 Кбит/сек
Каналы : 2 канала
Расположение каналов : Front: L R
Частота : 44, 1 КГц
Частота кадров : 43, 066 кадра/сек (1024 SPF)
Метод сжатия : С потерями
Размер потока : 25, 6 Мбайт (37%)
Язык : English
Default : Нет
AlternateGroup/String : 1
Аудио #2
Идентификатор : 3
Формат : AAC
Формат/Информация : Advanced Audio Codec
Профиль формата : LC
Идентификатор кодека : mp4a-40-2
Продолжительность : 11 м. 12 с.
Вид битрейта : Постоянный
Битрейт : 320 Кбит/сек
Каналы : 2 канала
Расположение каналов : Front: L R
Частота : 44, 1 КГц
Частота кадров : 43, 066 кадра/сек (1024 SPF)
Метод сжатия : С потерями
Размер потока : 25, 6 Мбайт (37%)
Язык : Russian
Default : Да
AlternateGroup/String : 1
Скриншоты:


Время раздачи: с 8: 00 до 3: 00 (до появления первых 3-5 скачавших)

Другие торренты по теме:

  • Kurt Elling - The Beautiful Day: Kurt Elling Sings Christmas (2016) [MP3|320 Kbps] <Jazz Vocals, Xmas>
  • Kurt Elling - The Beautiful Day: Kurt Elling Sings Christmas (2016) Sony Music Masterworks[FLAC|Lossless|tracks + .cue] <Vocal Jazz>
  • Курт Сеит и Александра / Kurt Seyit ve Sura (2014) HDTVRip (сезон 1, серии 1-13 из 13)
  • Курт Сеит и Александра / Kurt Seyit ve Sura (2014) HDTVRip (сезон 2, серии 1-8 из 8) скачать через торрент бесплатно
  • Кобейн: Чёртов монтаж / Kurt Cobain: Montage of Heck (2015) HDTVRip [H.264 / 1080p] [EN] скачать через торрент бесплатно
  • Кобейн: Чёртов монтаж / Kurt Cobain: Montage of Heck (2015) BDRip [H.264 / 1080p] [EN / EN, GER Sub] скачать через торрент бесплатно
  • Kurt Vile - blieve im goin down... (2015) [MP3|320 кб / с]<Alternative, Indie Rock, Folk, Acoustic, Psychedelic> скачать через торрент бесплатно
  • Kurt Elling - Passion World (2015) / Concord / [FLAC|tracks+.cue]<Vocal Jazz> скачать через торрент бесплатно

  • Посетители, находящиеся в группе Гости, не могут оставлять комментарии в данной новости.
    Для авторских прав
    Вход на сайт
    Навигация
    Популярное

    OTUS | Python QA Engineer (2019) PCRec [H.264]

    (скачиваний: 34)
    Книжная серия | Жизнь и счастье [9 книг] (2019-2020) [EPUB]

    (скачиваний: 27)
    Либби Уивер | Полезная книга о лишнем и вредном. Как прекратить бороться с собой, понять свой организм и начать питаться правильно (2021) [EPUB]

    (скачиваний: 18)
    Кенъити Сакума | Метод Сакума. Японская система формирования здорового мышечного каркаса за 5 минут в день (2020) [PDF]

    (скачиваний: 16)
    Томас Дерри, Тревор Уильямс | Краткая история технологий (2019) [PDF]

    (скачиваний: 15)
    [Udemy] Logus Online | Английский для начинающих: интенсивный разговорный курс | English for Beginners: Intensive Spoken English Course (2018) [En / En Sub]

    (скачиваний: 14)
    А.А. Гладкий | Как быстро восстановить потерянные компьютерные данные. Подробное руководство по спасению информации (2020) [PDF]

    (скачиваний: 13)
    Книжная серия | «Пешком по городу» [4 книги] (2018-2020) [FB2, PDF]

    (скачиваний: 12)
    Александр Свияш | Как правильно менять себя и быть успешным в любой ситуации (2020) [PDF]

    (скачиваний: 11)
    Андрей Мусалов | Хроники Даманского (2019) [FB2]

    (скачиваний: 10)