Подписывайся на наш канал в Telegram https://t.me/torrentok и получи доступ к торрентам без ограничений!

Skillshare | Создание стилизованной 3D модели для игр в Blender 2.83 / Blender 2.83 & More: Stylised 3D Game Model Complete Beginners Guide (2020) PCRec [EN / EN Sub] торрент скачать бесплатно

Skillshare | Создание стилизованной 3D модели для игр в Blender 2.83 / Blender 2.83 & More: Stylised 3D Game Model Complete Beginners Guide (2020) PCRec [EN / EN Sub]Автор: Нэил Беттисон/Neil Bettison
Производство: Skillshare
Жанр: 3D моделирование

Описание

Это полное руководство для начинающих по созданию 3D-стилизованной игровой модели. Этот курс научит вас, как создать стилизованную 3D-модель с нуля до профессионального уровня, следуя отраслевым пайплайнам.
Сначала мы смоделируем и сделаем UV развертку в Blender, затем добавим деталей с помощью скульптинга в ZBrush и создадим текстуры в Substance Painter, а в конце сделаем рендер в Marmoset Toolbag.
Продолжительность: 09: 39: 51
Качество видео: PCRec
Перевод: Отсутствует
Язык озвучки: Английский
Субтитры: Английские (отдельным файлом, форматы SRT и VTT)
Видео: AVC/H.264, 1920х1080, ~1088 Kbps
Аудио: AAC, 2 ch, 192 Kbps, CBR
General
Complete name : C: TorrentsSkillshare - Blender 2.83 More - Stylised 3D Game Model Complete Beginners Guide by Neil Bettison (2020)2 - Modeling - Blender 2.832. Modelling the Outer Inner Wheel.mp4
Format : MPEG-4
Format profile : Base Media
Codec ID : isom (isom/iso2/avc1/mp41)
File size : 138 MiB
Duration : 14 min 58 s
Overall bit rate : 1 288 kb/s
Writing application : Lavf56.30.100
Video
ID : 1
Format : AVC
Format/Info : Advanced Video Codec
Format profile : High@L4
Format settings : CABAC/4 Ref Frames
Format settings, CABAC : Yes
Format settings, Reference : 4 frames
Codec ID : avc1
Codec ID/Info : Advanced Video Coding
Duration : 14 min 58 s
Bit rate : 1 088 kb/s
Width : 1 920 pixels
Height : 1 080 pixels
Display aspect ratio : 16: 9
Frame rate mode : Constant
Frame rate : 30.000 FPS
Color space : YUV
Chroma subsampling : 4: 2: 0
Bit depth : 8 bits
Scan type : Progressive
Bits/(Pixel*Frame) : 0.017
Stream size : 117 MiB (84%)
Codec configuration box : avcC
Audio
ID : 2
Format : AAC LC
Format/Info : Advanced Audio Codec Low Complexity
Codec ID : mp4a-40-2
Duration : 14 min 58 s
Bit rate mode : Constant
Bit rate : 192 kb/s
Channel(s) : 2 channels
Channel layout : L R
Sampling rate : 48.0 kHz
Frame rate : 46.875 FPS (1024 SPF)
Compression mode : Lossy
Stream size : 20.5 MiB (15%)
Default : Yes
Alternate group : 1

Другие торренты по теме:

  • Skillshare | Создание анимации Солнечной системы для 3D анаглиф очков в Blender 2.83 / Create The Solar System Animation For 3D Anaglyph Glasses in Blender 2.83 (2020) PCRec [EN]
  • Skillshare | Применение референсных изображений: Создание правдоподобно выглядящих существ (2015) PCRec [H.264 / 1080p] скачать через торрент бесплатно

  • Посетители, находящиеся в группе Гости, не могут оставлять комментарии в данной новости.
    Для авторских прав
    Вход на сайт
    Навигация
    Популярное

    OTUS | Python QA Engineer (2019) PCRec [H.264]

    (скачиваний: 34)
    Книжная серия | Жизнь и счастье [9 книг] (2019-2020) [EPUB]

    (скачиваний: 27)
    Либби Уивер | Полезная книга о лишнем и вредном. Как прекратить бороться с собой, понять свой организм и начать питаться правильно (2021) [EPUB]

    (скачиваний: 18)
    Кенъити Сакума | Метод Сакума. Японская система формирования здорового мышечного каркаса за 5 минут в день (2020) [PDF]

    (скачиваний: 16)
    Томас Дерри, Тревор Уильямс | Краткая история технологий (2019) [PDF]

    (скачиваний: 15)
    [Udemy] Logus Online | Английский для начинающих: интенсивный разговорный курс | English for Beginners: Intensive Spoken English Course (2018) [En / En Sub]

    (скачиваний: 14)
    А.А. Гладкий | Как быстро восстановить потерянные компьютерные данные. Подробное руководство по спасению информации (2020) [PDF]

    (скачиваний: 13)
    Книжная серия | «Пешком по городу» [4 книги] (2018-2020) [FB2, PDF]

    (скачиваний: 12)
    Александр Свияш | Как правильно менять себя и быть успешным в любой ситуации (2020) [PDF]

    (скачиваний: 11)
    Андрей Мусалов | Хроники Даманского (2019) [FB2]

    (скачиваний: 10)