Подписывайся на наш канал в Telegram https://t.me/torrentok и получи доступ к торрентам без ограничений!

Codeby | Paranoid - анонимность и безопасность в сети (2020) PCRec торрент скачать бесплатно

Codeby | Paranoid - анонимность и безопасность в сети (2020) PCRecАвтор: Codeby
Производство: Ethical Hacking Tutorial Group The Codeby
Жанр: Администрирование

Описание

Бесплатный курс о комплексе мер по защите информации, защите персональных данных, конфиденциальности, анонимности в интернете. Подробно рассматривается настройка виртуальных машин, безопасная передача данных, анонимность в сети, анти-форензика и многое другое.
Продолжительность: 07: 32: 14
Качество видео: PCRec
Язык озвучки: Русский
Видео: AVC/H.264, 1280x720-1920х1080, ~1421 Kbps
Аудио: AAC, 2 ch, 132 Kbps
Общее
Полное имя : codeby Paranoid — курс по анонимности и безопасности в сети (2020)
Формат : MPEG-4
Профиль формата : Base Media
Идентификатор кодека : isom (isom/iso2/avc1/mp41)
Размер файла : 2, 88 Гб
Продолжительность : 7ч 32мин 14сек
Режим общего битрейта : Переменный
Общий поток : 1 559 Кбит/сек
Видео
Идентификатор : 1
Формат : AVC
Формат/Информация : Advanced Video Codec
Профиль формата : Main@L4.2
Настройки формата : CABAC/4 Ref Frames
Параметр CABAC формата : Да
Параметр RefFrames формата : 4 кадра
Параметр GOP формата : M=1, N=13
Идентификатор кодека : avc1
Идентификатор кодека/Информация : Advanced Video Coding
Продолжительность : 45 м. 26 с.
Битрейт : 1 421 Кбит/сек
Ширина : 1 280 пикселей
Высота : 720 пикселей
Соотношение сторон : 16: 9
Режим частоты кадров : Постоянный
Частота кадров : 29, 970 (30000/1001) кадров/сек
Стандарт вещания : Component
Цветовое пространство : YUV
Субдискретизация насыщенности : 4: 2: 0
Битовая глубина : 8 бит
Тип развёртки : Прогрессивная
Бит/(Пиксели*Кадры) : 0.051
Размер потока : 462 Мбайт (91%)
Цветовой диапазон : Limited
Codec configuration box : avcC
Аудио
Идентификатор : 2
Формат : AAC LC
Формат/Информация : Advanced Audio Codec Low Complexity
Идентификатор кодека : mp4a-40-2
Продолжительность : 45 м. 26 с.
Вид битрейта : Переменный
Битрейт : 132 Кбит/сек
Максимальный битрейт : 192 Кбит/сек
Каналы : 2 канала
Channel layout : L R
Частота : 44, 1 КГц
Частота кадров : 43, 066 кадра/сек (1024 SPF)
Метод сжатия : С потерями
Размер потока : 42, 7 Мбайт (8%)
Default : Да
Alternate group : 1
Скриншоты:


Время раздачи: 24/7 (до появления первых 3-5 скачавших)

Другие торренты по теме:

  • Codeby | Paranoid II — курс по анонимности и безопасности (2020) PCRec

  • Посетители, находящиеся в группе Гости, не могут оставлять комментарии в данной новости.
    Для авторских прав
    Вход на сайт
    Навигация
    Популярное

    OTUS | Python QA Engineer (2019) PCRec [H.264]

    (скачиваний: 34)
    Книжная серия | Жизнь и счастье [9 книг] (2019-2020) [EPUB]

    (скачиваний: 27)
    Либби Уивер | Полезная книга о лишнем и вредном. Как прекратить бороться с собой, понять свой организм и начать питаться правильно (2021) [EPUB]

    (скачиваний: 18)
    Кенъити Сакума | Метод Сакума. Японская система формирования здорового мышечного каркаса за 5 минут в день (2020) [PDF]

    (скачиваний: 16)
    Томас Дерри, Тревор Уильямс | Краткая история технологий (2019) [PDF]

    (скачиваний: 15)
    [Udemy] Logus Online | Английский для начинающих: интенсивный разговорный курс | English for Beginners: Intensive Spoken English Course (2018) [En / En Sub]

    (скачиваний: 14)
    А.А. Гладкий | Как быстро восстановить потерянные компьютерные данные. Подробное руководство по спасению информации (2020) [PDF]

    (скачиваний: 13)
    Книжная серия | «Пешком по городу» [4 книги] (2018-2020) [FB2, PDF]

    (скачиваний: 12)
    Александр Свияш | Как правильно менять себя и быть успешным в любой ситуации (2020) [PDF]

    (скачиваний: 11)
    Андрей Мусалов | Хроники Даманского (2019) [FB2]

    (скачиваний: 10)