Подписывайся на наш канал в Telegram https://t.me/torrentok и получи доступ к торрентам без ограничений!

Вольница | Супер Сила 2: Школа моушен дизайна (2019) WEB-DL торрент скачать бесплатно

Вольница | Супер Сила 2: Школа моушен дизайна (2019) WEB-DLАвтор: Никита Шилов, Алексей Аншуков, Степан Христофоров
Производство: Вольница
Жанр: Создание эффектов

Описание

О чем Супер Сила?
Мы не заучиваем параметры плагинов и эффектов, мы развиваем чувство стиля. Превращаем сложное в простое и наоборот из простых форм создаём визуально наполненные композиции. Развиваем арт-директорское чутье, учимся срезать углы по канонам Северного стиля.В программе курса мы поговорим об основах взаимодействия 3D пакетов и АЕ, залезем в плагины Element 3D, Stardust, пакеты от Trapcode, Sapphire, BCC, а так же прокачаем штатный набор эффектов и покажем как из привычных вещей создавать крутой дизайн. Помимо этого, разберем инструменты кеинга, трекинга, поговорим о выражениях в AE. Залезем в популярные инструменты оптимизирующие работу и, конечно же, будем совместно раскачивать ваши Бехансы коллабами и домашками, а сверху приправим все это подкастами наших друзей — успешных артдиректоров и моушен дизайнеров, которые поделятся с вами своими мыслями и наработками.
На выходе Супер Сила - это образ мышления, который поможет вам реализовывать как персональные, так и серьезные коммерческие проекты.Продолжительность: 17: 44: 29
Качество видео: WEB-DL
Видео: AVC/H.264, 1920x1080, ~5000 Kbps
Аудио: AAC, 2 ch, 137 Kbps
General
Complete name : Е: Вольница SUPER SILA 2. Школа Моушен Дизайна1. За стиль1. Эпоха мечтателей.mp4
Format : MPEG-4
Format profile : Base Media/Version 2
Codec ID : mp42 (mp42/mp41/isom/avc1)
File size : 209 MiB
Duration : 6 min 14 s
Overall bit rate mode : Variable
Overall bit rate : 4 680 kb/s
Encoded date : UTC 2019-05-25 16: 25: 50
Tagged date : UTC 2019-05-25 16: 25: 50
Video
ID : 1
Format : AVC
Format/Info : Advanced Video Codec
Format profile : High@L4
Format settings : CABAC/5 Ref Frames
Format settings, CABAC : Yes
Format settings, Reference : 5 frames
Codec ID : avc1
Codec ID/Info : Advanced Video Coding
Duration : 6 min 14 s
Bit rate : 4 539 kb/s
Width : 1 920 pixels
Height : 1 080 pixels
Display aspect ratio : 16: 9
Frame rate mode : Constant
Frame rate : 25.000 FPS
Color space : YUV
Chroma subsampling : 4: 2: 0
Bit depth : 8 bits
Scan type : Progressive
Bits/(Pixel*Frame) : 0.088
Stream size : 202 MiB (97%)
Writing library : x264 core 157 r10 d4099dd
Encoding settings : cabac=1/ref=5/deblock=1: 0: 0/analyse=0x3: 0x113/me=hex/subme=8/psy=1/psy_rd=1.00: 0.00/mixed_ref=1/me_range=16/chroma_me=1/trellis=2/8x8dct=1/cqm=0/deadzone=21, 11/fast_pskip=1/chroma_qp_offset=-2/threads=34/lookahead_threads=5/sliced_threads=0/nr=0/decimate=1/interlaced=0/bluray_compat=0/stitchable=1/constrained_intra=0/bframes=3/b_pyramid=2/b_adapt=2/b_bias=0/direct=3/weightb=1/open_gop=0/weightp=2/keyint=infinite/keyint_min=25/scenecut=40/intra_refresh=0/rc_lookahead=50/rc=crf/mbtree=1/crf=20.0/qcomp=0.60/qpmin=5/qpmax=69/qpstep=4/vbv_maxrate=5500/vbv_bufsize=15000/crf_max=0.0/nal_hrd=none/filler=0/ip_ratio=1.40/aq=1: 1.00
Encoded date : UTC 2019-05-25 16: 25: 50
Tagged date : UTC 2019-05-25 16: 25: 50
Color range : Limited
Color primaries : BT.709
Transfer characteristics : BT.709
Matrix coefficients : BT.709
Codec configuration box : avcC
Audio
ID : 2
Format : AAC LC
Format/Info : Advanced Audio Codec Low Complexity
Codec ID : mp4a-40-2
Duration : 6 min 14 s
Bit rate mode : Variable
Bit rate : 137 kb/s
Channel(s) : 2 channels
Channel layout : L R
Sampling rate : 48.0 kHz
Frame rate : 46.875 FPS (1024 SPF)
Compression mode : Lossy
Stream size : 6.11 MiB (3%)
Encoded date : UTC 2019-05-25 16: 25: 50
Tagged date : UTC 2019-05-25 16: 25: 50
Скриншоты:

Время раздачи: с 8: 00 до 3: 00 (до появления первых 3-5 скачавших)

Другие торренты по теме:

  • Вольница | Супер Сила 1: Научим вас моушен дизайну (2018) PCRec

  • Посетители, находящиеся в группе Гости, не могут оставлять комментарии в данной новости.
    Для авторских прав
    Вход на сайт
    Навигация
    Популярное

    OTUS | Python QA Engineer (2019) PCRec [H.264]

    (скачиваний: 34)
    Книжная серия | Жизнь и счастье [9 книг] (2019-2020) [EPUB]

    (скачиваний: 27)
    Либби Уивер | Полезная книга о лишнем и вредном. Как прекратить бороться с собой, понять свой организм и начать питаться правильно (2021) [EPUB]

    (скачиваний: 18)
    Кенъити Сакума | Метод Сакума. Японская система формирования здорового мышечного каркаса за 5 минут в день (2020) [PDF]

    (скачиваний: 16)
    Томас Дерри, Тревор Уильямс | Краткая история технологий (2019) [PDF]

    (скачиваний: 15)
    [Udemy] Logus Online | Английский для начинающих: интенсивный разговорный курс | English for Beginners: Intensive Spoken English Course (2018) [En / En Sub]

    (скачиваний: 14)
    А.А. Гладкий | Как быстро восстановить потерянные компьютерные данные. Подробное руководство по спасению информации (2020) [PDF]

    (скачиваний: 13)
    Книжная серия | «Пешком по городу» [4 книги] (2018-2020) [FB2, PDF]

    (скачиваний: 12)
    Александр Свияш | Как правильно менять себя и быть успешным в любой ситуации (2020) [PDF]

    (скачиваний: 11)
    Андрей Мусалов | Хроники Даманского (2019) [FB2]

    (скачиваний: 10)