Подписывайся на наш канал в Telegram https://t.me/torrentok и получи доступ к торрентам без ограничений!

Ад на колесах / Hell on Wheels (2015) WEB-DLRip (сезон 5, серии 1-8 из 14) LostFilm (обновляемая) торрент скачать бесплатно

Ад на колесах / Hell on Wheels (2015) WEB-DLRip (сезон 5, серии 1-8 из 14) LostFilm (обновляемая)Производство: Канада, Великобритания
Жанр: драма, вестерн
Режиссер: Дэвид Фон Энкен, Адам Дэвидсон, Нил ЛаБут

Актеры
Энсон Маунт, Колм Мини, Фил Бурк, Робин МакЛиви, Дон Норвуд, Кристофер Хейердал, Дженнифер Феррин, Чела Хорсдэл, МакКензи Портер и др.

Описание

Действие драматического телесериала Ад на колёсах, снятого в жанре вестерн, разворачивается в далёком 1865 году, в небольшом поселении под названием Ад на колесах. Большую часть местного населения составляют работники компании занимающейся строительством первой трансконтинентальной железной дорог, а также преступники, проститутки, торговцы и другие люди, выбравшие данное место для жизни.
Сюда же приводит не лёгкая судьба и главного героя Каллена Бохэннэна – бывшего солдата Конфедерации, который колесит по землям Соединенных Штатов в поисках людей, изнасиловавших и жестоко убивших его жену и совсем юного сына.
Сердце Калленна переполняет злость, а жажда мести стала смыслом его жизни, и он не остановиться не перед чем пока все виновные не будут жестоко наказаны.

Продолжительность: ~00: 43: 00 серия
Качество видео: WEB-DLRip
Перевод: Многоголосый закадровый, профессиональный -LostFilm
Реклама: присутствуют заставка и логотип LostFilm.
Видео: XviD, 720x400 (16: 9), ~1300 kb/s
Аудио Rus: MPEG Layer 3, 48, 0 kHz, 2 ch, 192 kb/s — многоголосый закадровыйОбщее
Полное имя : D: Ад на колёсах (сезон любимого сериала 5) Hell on Wheels (2015) WEB-DLRip - LostFilmHell.On.Wheels.S05E01.rus.LostFilm.TV.avi
Формат : AVI
Формат/Информация : Audio Video Interleave
Размер файла : 455 Мбайт
Продолжительность : 43 м.
Режим общего битрейта : Переменный
Общий поток : 1473 Кбит/сек
Программа кодирования : Nandub v1.0rc2
Библиотека кодирования : Nandub build 1853/release
Видео
Идентификатор : 0
Формат : MPEG-4 Visual
Профиль формата : Advanced [email protected]
Параметр BVOP формата : Нет
Параметр QPel формата : Нет
Параметр GMC формата : Без точки перехода
Параметр матрицы формата : Default (H.263)
Идентификатор кодека : XVID
Идентификатор кодека/Подсказка : XviD
Продолжительность : 43 м.
Битрейт : 1272 Кбит/сек
Ширина : 720 пикселей
Высота : 400 пикселей
Соотношение сторон : 16: 9
Частота кадров : 23, 976 кадра/сек
Цветовое пространство : YUV
Субдискретизация насыщенности : 4: 2: 0
Битовая глубина : 8 бит
Тип развёртки : Прогрессивная
Метод сжатия : С потерями
Бит/(Пиксели*Кадры) : 0.184
Размер потока : 393 Мбайт (86%)
Библиотека кодирования : XviD 1.2.1 (UTC 2008-12-04)
Аудио
Идентификатор : 1
Формат : MPEG Audio
Версия формата : Version 1
Профиль формата : Layer 3
Режим : Joint stereo
Расширение режима : MS Stereo
Идентификатор кодека : 55
Идентификатор кодека/Подсказка : MP3
Продолжительность : 43 м.
Вид битрейта : Переменный
Битрейт : 192 Кбит/сек
Каналы : 2 канала
Частота : 48, 0 КГц
Метод сжатия : С потерями
Размер потока : 58, 0 Мбайт (13%)
Выравнивание : Соединение по промежуткам
Продолжительность промежутка : 24 мс. (0, 58 видеокадр)
Время предзагрузки промежутка : 482 мс.
Библиотека кодирования : LAME3.97b
Настройки программы : -m j -V 4 -q 3 -lowpass 18.6 --abr 192

Скриншоты для ознакомления




Онлайн видео Ад на колесах

Другие торренты по теме:

  • Ад на колесах / Hell on Wheels (2014) WEB-DLRip [H.264 / 720p-LQ] (сезон 4, серии 1-8 из 13) LostFilm (oбновляемая)
  • Ад на колесах / Hell on Wheels (2014) WEB-DLRip (Сезон 4, серии 01-08 из 13) LostFilm (обновляемая)
  • Ад на колесах (Hell on Wheels) / (Сезон 4, серии 1-8 из 10) LostFilm (2014) (MP4|1280x718) <WEB-DL H.264> (обновляемая)
  • Ад на колесах / Hell on Wheels (2015) WEB-DLRip (сезон 5, серии 1 из 14) LostFilm (обновляемая) скачать через торрент бесплатно
  • Ад на колесах / Hell on Wheels (2015) WEB-DL [H.264 / 720p-LQ] (сезон 5, серии 1 из 14) Кубик в Кубе (обновляемая) скачать через торрент бесплатно
  • Ад на колесах / Hell on Wheels (2015) WEB-DLRip [H.264 / 1080p-LQ] (сезон 5, серии 1-11 из 14) LostFilm (обновляемая)

  • Посетители, находящиеся в группе Гости, не могут оставлять комментарии в данной новости.