Подписывайся на наш канал в Telegram https://t.me/torrentok и получи доступ к торрентам без ограничений!

Клевермэн / Умник / Cleverman (2016) WEB-DL [H.264 / 1080p-LQ] (сезон 1, серии 1-2 из 6) Newstudio (обновляемая) торрент скачать бесплатно

Клевермэн / Умник / Cleverman (2016) WEB-DL [H.264 / 1080p-LQ] (сезон 1, серии 1-2 из 6) Newstudio (обновляемая)Производство: США, Австралия, Новая Зеландия
Жанр: Фантастика
Режиссер: Уэйн Блэр, Леа Пурселл

Актеры
Хантер Пейдж-Лошар, Дебора Мэйлман, Тасма Уолтон, Джада Альбертс, Фрэнсис О’Коннор, Мансур Нур, Линетт Каррен, Маркус Грэхэм и др.

Описание

Действие сериала разворачивается в недалеком будущем. Существа из австралийских мифов и легенд проникли в нашу реальность и захватили мир людей, и теперь человечество вынуждено ютиться в небольшой общине, опасаясь за свою жизнь. В центре событий — история двух братьев, которые, несмотря на давнюю вражду, объединяют усилия в борьбе за выживание.

Дата мировой премьеры: 2 июня 2016
Продолжительность: ~00: 52: 00 серия
Качество видео: WEB-DL
Перевод: Многоголосый закадровый, профессиональный -Newstudio
Реклама: Присутствуют видео, аудио вставки рекламы.

Видео: AVC/H.264, 1916х1076, ~5 196 Kbps, 23.976 fps
Аудио Rus: AC-3, 6 ch, 48.0 KHz, 384 Kbps - многоголосый закадровый
Аудио Eng: AC-3, 6 ch, 48.0 KHz, 384 Kbps - оригинал Код:
Complete name : D:Cleverman.WEBDL.1080p.NewStudioCleverman.s01e01.WEBDL.1080p.NewStudio.mkv
Format : Matroska
Format version : Version 4/Version 2
File size : 2.11 GiB
Duration : 50mn 31s
Overall bit rate : 5 966 Kbps
Encoded date : UTC 2016-06-09 17:19:33
Writing application : mkvmerge v8.2.0 (\'World of Adventure\') 32bit
Writing library : libebml v1.3.1 + libmatroska v1.4.2
Video
ID : 1
Format : AVC
Format/Info : Advanced Video Codec
Format profile : [email protected]
Format settings, CABAC : Yes
Format settings, ReFrames : 4 frames
Codec ID : V_MPEG4/ISO/AVC
Duration : 50mn 31s
Bit rate : 5 196 Kbps
Width : 1 916 pixels
Height : 1 076 pixels
Display aspect ratio : 16:9
Frame rate mode : Constant
Frame rate : 23.976 (23976/1000) fps
Color space : YUV
Chroma subsampling : 4:2:0
Bit depth : 8 bits
Scan type : Progressive
Bits/(Pixel*Frame) : 0.105
Stream size : 1.83 GiB (87%)
Language : English
Default : Yes
Forced : No
Color range : Limited
Color primaries : BT.709
Transfer characteristics : BT.709
Matrix coefficients : BT.709
Audio #1
ID : 2
Format : AC-3
Format/Info : Audio Coding 3
Mode extension : CM (complete main)
Format settings, Endianness : Big
Codec ID : A_AC3
Duration : 50mn 31s
Bit rate mode : Constant
Bit rate : 384 Kbps
Channel(s) : 6 channels
Channel positions : Front: L C R, Side: L R, LFE
Sampling rate : 48.0 KHz
Frame rate : 31.250 fps (1536 spf)
Compression mode : Lossy
Stream size : 139 MiB (6%)
Title : NewStudio.TV
Language : Russian
Default : Yes
Forced : No
Audio #2
ID : 3
Format : AC-3
Format/Info : Audio Coding 3
Mode extension : CM (complete main)
Format settings, Endianness : Big
Codec ID : A_AC3
Duration : 50mn 31s
Bit rate mode : Constant
Bit rate : 384 Kbps
Channel(s) : 6 channels
Channel positions : Front: L C R, Side: L R, LFE
Sampling rate : 48.0 KHz
Frame rate : 31.250 fps (1536 spf)
Compression mode : Lossy
Stream size : 139 MiB (6%)
Language : English
Default : No
Forced : No


Скриншоты для ознакомления




Онлайн видео Клевермэн

Другие торренты по теме:

  • Клевермэн / Умник / Cleverman (2016) WEB-DL [H.264 / 1080p-LQ] (сезон 1, серии 1-6 из 6) BaibaKo

  • Посетители, находящиеся в группе Гости, не могут оставлять комментарии в данной новости.