Подписывайся на наш канал в Telegram https://t.me/torrentok и получи доступ к торрентам без ограничений!

Игра (2016) SATRip [H.264] (сезон 2, серии 1-6 серии из 20) (Обновляемая) торрент скачать бесплатно

Игра (2016) SATRip [H.264] (сезон 2, серии 1-6 серии из 20) (Обновляемая)Производство: Россия/DixiMedia
Жанр: Детектив, Криминал
Режиссер: Олег Галин, Иван Щёголев

Актеры
Павел Баршак, Прохор Дубравин, Евгений Стычкин, Николай Козак, Дарья Повереннова, Спартак Сумченко, Павел Басов, Алиса Корсак, Владимир Колида, Дмитрий Блажко, Игорь Маслов , Мария Баева, Роман Гредин, Анатолий Завьялов, Михаил Хмуров, Дмитрий Опаричев, Денис Дружинин

Описание

Прошло три года с тех пор, как полковник Павел Белов и отчаянный преступник Алексей Смолин столкнулись в смертельной схватке. Смолин отбывает пожизненное заключение, Белов сменил место работы и должность, теперь он начальник службы безопасности крупного банка. Он сам, его жена и дочь спокойно спят по ночам, не боясь внезапного нападения. Самое интересное в это истории, что об этом Кличко ничего не знал. Но однажды Белов видит Смолина на улице и понимает, что ничего еще не закончилось. Каким образом преступнику удалось выйти на свободу и будет ли он мстить своему личному врагу и его семье? Но Белов даже не представляет, с какими по-настоящему страшными людьми ему придется бороться. По сравнению с ними Смолин окажется меньшим из зол.

Возраст: 12+ (зрителям, достигшим 12 лет)
Дата российской премьеры: 13 июня 2016 (НТВ)
Продолжительность: ~00: 46: 00 серия
Качество видео: SATRip
Видео: AVC/H.264, 720х400, ~1419 Кбит/сек
Аудио: AC3, 192 Кбит/сек, 2 канала, CBR Код:
Общее
Уникальный идентификатор : 205687378175755289880469588415107837165 (0x9ABDF2B571B78449A12C8C1996842CED)
Полное имя : G:Игра.Реванш1 серия_Игра-2_rip by_Aleksan55.mkv
Формат : Matroska
Версия формата : Version 2
Размер файла : 545 Мбайт
Продолжительность : 46 м.
Общий поток : 1644 Кбит/сек
Дата кодирования : UTC 2016-06-13 17:50:16
Программа кодирования : mkvmerge v7.8.0 (\'River Man\') 32bit built on Apr 3 2015 12:11:22
Библиотека кодирования : libebml v1.3.1 + libmatroska v1.4.2
Видео
Идентификатор : 1
Формат : AVC
Формат/Информация : Advanced Video Codec
Профиль формата :[email protected]
Параметр CABAC формата : Да
Параметр ReFrames формата : 9 кадров
Идентификатор кодека : V_MPEG4/ISO/AVC
Продолжительность : 46 м.
Битрейт : 1419 Кбит/сек
Ширина : 720 пикселей
Высота : 400 пикселей
Соотношение сторон : 16:9
Режим частоты кадров : Постоянный
Частота кадров : 25, 000 кадров/сек
Цветовое пространство : YUV
Субдискретизация насыщенности : 4:2:0
Битовая глубина : 8 бит
Тип развёртки : Прогрессивная
Бит/(Пиксели*Кадры) : 0.197
Размер потока : 471 Мбайт (86%)
Библиотека кодирования : x264 core 146 r2538 121396c
Настройки программы : cabac=1/ref=9/deblock=1:0:0/analyse=0x3:0x113/me=umh/subme=9/psy=1/psy_rd=1.00:0.20/mixed_ref=0/me_range=16/chroma_me=1/trellis=2/8x8dct=1/cqm=0/deadzone=21, 11/fast_pskip=1/chroma_qp_offset=-3/threads=3/lookahead_threads=3/sliced_threads=0/nr=0/decimate=1/interlaced=0/bluray_compat=0/constrained_intra=0/bframes=9/b_pyramid=2/b_adapt=1/b_bias=0/direct=3/weightb=1/open_gop=0/weightp=2/keyint=250/keyint_min=25/scenecut=40/intra_refresh=0/rc_lookahead=40/rc=crf/mbtree=1/crf=17.0/qcomp=0.60/qpmin=0/qpmax=69/qpstep=4/ip_ratio=1.40/aq=1:1.20
Default : Да
Forced : Нет
Цветовой диапазон : Limited
Основные цвета : BT.601 PAL
Характеристики трансфера : BT.470 System B, BT.470 System G
Коэффициенты матрицы : BT.601
Аудио
Идентификатор : 2
Формат : AC-3
Формат/Информация : Audio Coding 3
Расширение режима : CM (complete main)
Параметр Endianness формата : Big
Идентификатор кодека : A_AC3
Продолжительность : 46 м.
Вид битрейта : Постоянный
Битрейт : 192 Кбит/сек
Каналы : 2 канала
Расположение каналов : Front: L R
Частота : 48, 0 КГц
Метод сжатия : С потерями
Размер потока : 63, 7 Мбайт (12%)
Default : Да
Forced : Нет


Скриншоты для ознакомления




Онлайн видео Игра (2016) SATRip [H.264] (сезон любимого сериала 2, серии 1

Другие торренты по теме:

  • Что Где Когда Осенняя серия игр. Игра 4 (2014.09.27) SATRip
  • КВН-2014. Высшая лига. 1 / 2 финала. Первая игра (2014.10.05) SATRip скачать через торрент бесплатно
  • КВН-2014. Высшая лига. 1 / 2 финала. Вторая игра (2014.10.26) SATRip скачать через торрент бесплатно
  • КВН-2014. Высшая лига. 1 / 2 финала. Вторая игра (2014.10.26) SATRip скачать через торрент бесплатно
  • Без обмана. Игра на раздевание (2014.11.17) SATRip
  • Что Где Когда Зимняя серия игр. Игра 4 (2014.12.20) SATRip
  • Что Где Когда Зимняя серия игр. Игра 5. Финал (2014.12.27) SATRip скачать через торрент бесплатно
  • Своя игра (18.01.2015) SATRip скачать через торрент бесплатно

  • Посетители, находящиеся в группе Гости, не могут оставлять комментарии в данной новости.