Подписывайся на наш канал в Telegram https://t.me/torrentok и получи доступ к торрентам без ограничений!

Турецкий гамбит (2005) HDTV [H.264 / 1080i] торрент скачать бесплатно

Турецкий гамбит (2005) HDTV [H.264 / 1080i]Производство: Россия, Первый канал, Студия ТРИТЭ Никиты Михалкова, Cinemateka Post-Production House, Богема Мьюзик
Жанр: Боевик, Триллер, Приключения, Военный
Режиссер: Джаник Файзиев

Актеры
Егор Бероев, Ольга Красько, Марат Башаров, Владимир Ильин, Дмитрий Певцов, Виктор Вержбицкий, Александр Балуев, Алексей Гуськов, Гоша Куценко, Александр Олешко, Андрей Краско, Леонид Куравлев, Евгений Лазарев, Дидье Бьенэмэ, Виктор Бычков, Сергей Газаров, Александр Лыков, Даниэль Ольбрыхский, Валдис Пельш, Андрей Руденский

Описание

Титулярный советник Эраст Фандорин принимает участие в военных действиях в ходе Русско-турецкой войны 1877-1878 гг. Будучи сербским волонтером, Эраст Петрович знакомится с очаровательной барышней — Варварой Андреевной Суворовой, направляющейся в расположение русских войск, чтобы повидаться со своим женихом. С ее помощью Фандорину удается распутать сложное и таинственное дело о шпионаже…

Возраст: 16+ (зрителям, достигшим 16 лет)
Продолжительность: 02: 03: 28
Качество видео: HDTV 1080i
Видео: AVC/H.264, 1920x1080, ~7584 Kbps
Аудио #1: MP2, 48 kHz, 2 ch, 224 kbps
Аудио #2: АС-3, 48 kHz, 6 ch, 384 kbps Код:
Общее
Идентификатор : 16 (0x10)
Полное имя : Turetskiy gambit_HD.ts
Формат : MPEG-TS
Размер файла : 7, 44 Гбайт
Продолжительность : 2 ч. 3 м.
Режим общего битрейта : Переменный
Общий поток : 8625 Кбит/сек
Видео
Идентификатор : 1902 (0x76E)
Идентификатор меню : 92 (0x5C)
Формат : AVC
Формат/Информация : Advanced Video Codec
Профиль формата :[email protected]
Параметр CABAC формата : Да
Параметр ReFrames формата : 3 кадра
Параметр GOP формата : M=4, N=32
Идентификатор кодека : 27
Продолжительность : 2 ч. 3 м.
Битрейт : 7584 Кбит/сек
Ширина : 1920 пикселей
Высота : 1080 пикселей
Соотношение сторон : 16:9
Частота кадров : 25, 000 кадров/сек
Стандарт вещания : PAL
Цветовое пространство : YUV
Субдискретизация насыщенности : 4:2:0
Битовая глубина : 8 бит
Тип развёртки : Чересстрочная
Порядок развёртки : Верхнее поле первое
Бит/(Пиксели*Кадры) : 0.146
Размер потока : 6, 54 Гбайт (88%)
Основные цвета : BT.709
Характеристики трансфера : BT.709
Коэффициенты матрицы : BT.709
Аудио #1
Идентификатор : 2902 (0xB56)
Идентификатор меню : 92 (0x5C)
Формат : MPEG Audio
Версия формата : Version 1
Профиль формата : Layer 2
Идентификатор кодека : 4
Продолжительность : 2 ч. 3 м.
Вид битрейта : Постоянный
Битрейт : 224 Кбит/сек
Каналы : 2 канала
Частота : 48, 0 КГц
Метод сжатия : С потерями
Задержка видео : 56 мс.
Размер потока : 198 Мбайт (3%)
Язык : std
Язык, дополнительно : Clean effects
Аудио #2
Идентификатор : 3902 (0xF3E)
Идентификатор меню : 92 (0x5C)
Формат : AC-3
Формат/Информация : Audio Coding 3
Расширение режима : CM (complete main)
Параметр Endianness формата : Big
Идентификатор кодека : 6
Продолжительность : 2 ч. 3 м.
Вид битрейта : Постоянный
Битрейт : 384 Кбит/сек
Каналы : 6 каналов
Расположение каналов : Front: L C R, Side: L R, LFE
Частота : 48, 0 КГц
Битовая глубина : 16 бит
Метод сжатия : С потерями
Задержка видео : 144 мс.
Размер потока : 339 Мбайт (4%)
Язык : std
Язык, дополнительно : Clean effects
Текст
Идентификатор : 33 (0x21)-100
Идентификатор меню : 92 (0x5C)
Формат : Teletext
Меню
Идентификатор : 902 (0x386)
Идентификатор меню : 92 (0x5C)
Продолжительность : 2 ч. 3 м.
Список : 1902 (0x76E) (AVC)/2902 (0xB56) (MPEG Audio, std)/3902 (0xF3E) (AC-3, std)/33 (0x21) ()
Язык : /std/std


Скриншоты для ознакомления




Онлайн видео Турецкий гамбит (2005) HDTV [H.264

Другие торренты по теме:

  • В теме. Турецкий Гамбит (2015) SATRip скачать через торрент бесплатно
  • Борис Акунин | Турецкий гамбит (2016) [MP3]
  • В теме. Турецкий гамбит (24.08.2016) SATRip
  • Турецкий гамбит (2005) DVDRip [H.264] (серии 1-4 из 4) (полная версия)
  • Турецкий гамбит (2005) DVDRip [H.264]

  • Посетители, находящиеся в группе Гости, не могут оставлять комментарии в данной новости.
    Для авторских прав
    Вход на сайт
    Навигация
    Популярное