Подписывайся на наш канал в Telegram https://t.me/torrentok и получи доступ к торрентам без ограничений!

Пятая печать / Az otodik pecset (1976) DVDRip [H.264] торрент скачать бесплатно

Пятая печать / Az otodik pecset (1976) DVDRip [H.264]Производство: Венгрия, кинокомпания Mafilm, Budapest Filmstúdió
Жанр: Драма, военный, притча
Режиссер: Золтан Фабри

Актеры
Лайош Эзе, Ласло Маркуш, Ференц Бенце, Шандор Хорват, Иштван Деги, Золтан Латинович, Габор Надь, Дьёрдь Банффи, Йожеф Вандор, Ноэми Апор и др.

Описание

Экранизация одноимённой повести Ференца Шанты.
В названии повести и фильма использован образ из Откровения Иоанна Богослова.
Венгрия, осень 1944 года, Будапешт, в одном из трактиров по вечерам собираются пятеро мужчин и беседуют, спорят о судьбах человечества, о том, каким должен быть человек, когда идёт война, когда у власти негодяи. Благодатная почва, сказал кто то из толпы, к чему не понятно. Но так случилось, что им пришлось сделать свой выбор не только теоретически, но и в жизни…

Возраст: 12+ (зрителям, достигшим 12 лет)
Продолжительность: 01: 46: 51
Качество видео: DVDRip
Перевод: Дублированный, одноголосый закадровый
Видео: AVC/H.264, 690х518, ~1 099Kbps
Аудио#1: AC3, 2 ch, 192 Kbps - | Русский - дублированный (Союзмультфильм)
Аудио#2: AC3, 2 ch, 192 Kbps - | Русский - AVO Код:
Общее
Уникальный идентификатор : 224603773027875792019865227631565319326 (0xA8F91CFB4F277E39B3240CF38BB9AC9E)
Полное имя : E:-Пятая печать. 1976Пятая печать.1976.mkv
Формат : Matroska
Версия формата : Version 4/Version 2
Размер файла : 1, 13 Гбайт
Продолжительность : 1 ч. 46 м.
Общий поток : 1514 Кбит/сек
Название фильма : Release for Topmost
Дата кодирования : UTC 2016-06-13 05:33:01
Программа кодирования : mkvmerge v6.2.0 (\'Promised Land\') built on Apr 28 2013 12:22:01
Библиотека кодирования : libebml v1.3.0 + libmatroska v1.4.0
Attachment : Yes
Видео
Идентификатор : 1
Формат : AVC
Формат/Информация : Advanced Video Codec
Профиль формата :[email protected]
Параметр CABAC формата : Да
Параметр ReFrames формата : 5 кадров
Идентификатор кодека : V_MPEG4/ISO/AVC
Битрейт : 1099 Кбит/сек
Ширина : 690 пикселей
Высота : 518 пикселей
Соотношение сторон : 4:3
Режим частоты кадров : Переменный
Частота кадров в оригинале : 25, 000 кадров/сек
Цветовое пространство : YUV
Субдискретизация насыщенности : 4:2:0
Битовая глубина : 8 бит
Тип развёртки : Прогрессивная
Заголовок : Пятая печать.1976 (Release for Topmost)
Библиотека кодирования : x264 core 146 r2538bm 121396c
Настройки программы : cabac=1/ref=5/deblock=1:0:0/analyse=0x3:0x113/me=umh/subme=8/psy=1/psy_rd=1.00:0.00/mixed_ref=1/me_range=16/chroma_me=1/trellis=1/8x8dct=1/cqm=0/deadzone=21, 11/fast_pskip=1/chroma_qp_offset=-2/threads=3/lookahead_threads=1/sliced_threads=0/nr=0/decimate=1/interlaced=0/bluray_compat=0/constrained_intra=0/bframes=3/b_pyramid=2/b_adapt=2/b_bias=0/direct=3/weightb=1/open_gop=0/weightp=2/keyint=250/keyint_min=25/scenecut=40/intra_refresh=0/rc_lookahead=50/rc=crf/mbtree=1/crf=19.2/qcomp=0.60/qpmin=0/qpmax=69/qpstep=4/ip_ratio=1.40/aq=1:1.00
Default : Да
Forced : Нет
Аудио #1
Идентификатор : 2
Формат : AC-3
Формат/Информация : Audio Coding 3
Расширение режима : CM (complete main)
Параметр Endianness формата : Big
Идентификатор кодека : A_AC3
Продолжительность : 1 ч. 46 м.
Вид битрейта : Постоянный
Битрейт : 192 Кбит/сек
Каналы : 2 канала
Расположение каналов : Front: L R
Частота : 48, 0 КГц
Битовая глубина : 16 бит
Метод сжатия : С потерями
Задержка видео : 2 с. 564 мс.
Размер потока : 147 Мбайт (13%)
Заголовок : AC3, 2 ch, 192 kbps - (дублированный, Союзмультфильм)
Язык : Russian
Default : Да
Forced : Нет
Аудио #2
Идентификатор : 3
Формат : AC-3
Формат/Информация : Audio Coding 3
Расширение режима : CM (complete main)
Параметр Endianness формата : Big
Идентификатор кодека : A_AC3
Продолжительность : 1 ч. 46 м.
Вид битрейта : Постоянный
Битрейт : 192 Кбит/сек
Каналы : 2 канала
Расположение каналов : Front: L R
Частота : 48, 0 КГц
Битовая глубина : 16 бит
Метод сжатия : С потерями
Задержка видео : 2 с. 564 мс.
Размер потока : 147 Мбайт (13%)
Заголовок : AC3, 2 ch, 192 kbps - VO
Язык : Russian
Default : Нет
Forced : Нет


Скриншоты для ознакомления




Онлайн видео Пятая печать

Другие торренты по теме:

  • Николай Воронцов | Пятая печать (2018) [FB2]

  • Посетители, находящиеся в группе Гости, не могут оставлять комментарии в данной новости.
    Для авторских прав
    Вход на сайт
    Навигация
    Популярное